Sign in to follow this  
ScooterMan

[θρίλερ τρόμου] LOOK AWAY (2018) 720p BRRip XviD AC3-XVID | ΕΝΣΩΜΑΤΩΜΕΝΟΙ ΥΠΟΤΙΤΛΟΙ

Recommended Posts

ScooterMan


V9eQfk7.jpg


gGH2Dbn.png?3

Ελληνικός Τίτλος: Κοίτα μακριά
Είδος Ταινίας: Horror, Thriller 
Σκηνοθέτης: Assaf Bernstein
Σεναριογράφος: Assaf Bernstein
Ηθοποιοί: India Eisley, Jason Isaacs, Mira Sorvino
Πρεμιέρα: 2018 (Canada)
Μετάφραση: Πικάπ
IMDb: https://www.imdb.com/title/tt5834760/


dbzzNXu.png?2

Ένα 18χρονο κορίτσι, βλέποντας ότι οι γονείς και οι φίλοι της δεν την υποστηρίζουν στα διάφορα προβλήματά της, ανοίγεται στην αντανάκλαση της στον καθρέφτη. Τότε αλλάζει θέση με το σατανικό δίδυμό της που βλέπει εκεί και ελευθερώνει πάμπολλα άσχημα αισθήματα που κρατούσε μέσα της τόσο καιρό.


uoJL54u.png?2

General
Format                      : AVI
Format/Info                 : Audio Video Interleave
Format profile              : OpenDML
File size                   : 2.47 GiB
Duration                    : 1 h 43 min
Overall bit rate            : 3 414 kb/s
Writing application         : Lavf58.20.100
Writing library             : VirtualDub build 35491/release

Video
ID                          : 0
Format                      : MPEG-4 Visual
Format settings, BVOP       : No
Format settings, QPel       : No
Format settings, GMC        : No warppoints
Format settings, Matrix     : Default (H.263)
Codec ID                    : DX50
Codec ID/Hint               : DivX 5
Duration                    : 1 h 43 min
Bit rate                    : 2 762 kb/s
Nominal bit rate            : 9 708 kb/s
Width                       : 1 280 pixels
Height                      : 536 pixels
Display aspect ratio        : 2.40:1
Frame rate                  : 23.976 (24000/1001) FPS
Color space                 : YUV
Chroma subsampling          : 4:2:0
Bit depth                   : 8 bits
Scan type                   : Progressive
Compression mode            : Lossy
Bits/(Pixel*Frame)          : 0.168
Stream size                 : 2.00 GiB (81%)
Writing library             : DivX 6.8.5 (UTC 2009-08-20)

Audio
ID                          : 1
Format                      : AC-3
Format/Info                 : Audio Coding 3
Commercial name             : Dolby Digital
Codec ID                    : 2000
Duration                    : 1 h 43 min
Bit rate mode               : Constant
Bit rate                    : 640 kb/s
Channel(s)                  : 6 channels
Channel layout              : L R C LFE Ls Rs
Sampling rate               : 48.0 kHz
Frame rate                  : 31.250 FPS (1536 SPF)
Bit depth                   : 16 bits
Compression mode            : Lossy
Stream size                 : 475 MiB (19%)
Alignment                   : Aligned on interleaves
Interleave, duration        : 42  ms (1.00 video frame)
Interleave, preload duratio : 512  ms
Service kind                : Complete Main


DaFoCwx.jpg

 

 


24p9pg4.jpg


Hidden Content
You'll be able to see the hidden content once you reply to this topic.


esmb92.jpg


seywwp.jpg


Share this post


Link to post
Share on other sites

Create an account or sign in to comment

You need to be a member in order to leave a comment

Create an account

Sign up for a new account in our community. It's easy!

Register a new account

Sign in

Already have an account? Sign in here.

Sign In Now
Sign in to follow this