Jump to content
POPIKOSTAS

αισθηματική ASK YENIDEN-ΕΡΩΤΑΣ ΞΑΝΑ (2015) 720p HDTv-ΕΝΣΩΜΑΤΩΜΕΝΟΙ ΥΠΟΤΙΤΛΟΙ ΩΣ 33

Recommended Posts

POPIKOSTAS

TaalCvIh.png

ASK YENIDEN-ΕΡΩΤΑΣ ΞΑΝΑ (2015) 720p HDTv-ΕΝΣΩΜΑΤΩΜΕΝΟΙ ΥΠΟΤΙΤΛΟΙ

oaseRjWh.jpg

Stars: Özge Özpirinçci, Bugra Gülsoy, Tamer Levent

Η αναμενόμενη σειρά του FoxTV “AΕΕΈkYeninden- Έρωτας ξανά” που είναι παραγωγή της εταιρείας SΓΌreΓ§Film, με πρωταγωνιστές τους: BuΔΕΈra GΓΌlsoy, Γ–zge Γ–zpΔ±rΔ±nΓ§cΔ±, Mert Γ–ner και CanSipahi, άρχισε γυρίσματα αυτό το μήνα στην Αμερική. Πρόκειται για μια ρομαντική κομεντί για δυο νέους ανθρώπους που συναντιούνται σ’ ένα αεροπλάνο.
H Ζευνέπ αφήνει την οικογένεια της και τους αγαπημένους της και φεύγει για την Αμερική ακολουθώντας τον φίλο της Ερτάν, όμως αναγκάζεται να επιστρέψει στην Τουρκία με κατεστραμμένα όνειρα και ένα μωρό στα χέρια της. Από την άλλη πλευρά έχουμε τον Φατίχ, ο οποίος είχε πάει στην Αμερική για σπουδές και τώρα ήρθε και η δική του ώρα να επιστρέψει στη χώρα του και στην οικογένεια του, με τα δικά του κατεστραμμένα όνειρα. Αυτή είναι η ιστορία δυο ανθρώπων που ζουν δυο πολύ διαφορετικές ζωές και που οι δρόμοι τους συναντιούνται καθώς επιστρέφουν στο σπίτι τους.
Η σειρά έκανε πρεμιέρα στο FoxTV τον Φεβρουάριο του 2015.

[video=youtube;rO19KxmmcGg]https://www.youtube.com/watch?v=rO19KxmmcGg[/video]

https://www.imdb.com/title/tt5616644/

tvqnUqJh.jpg

ΤΕΧΝΙΚΑ ΧΑΡΑΚΤΗΡΙΣΤΙΚΑ


General
Complete name               : KSANAGAPHSAME.S01E01.mkv
Format                      : Matroska
Format version              : Version 2
File size                   : 1.76 GiB
Duration                    : 1 h 43 min
Overall bit rate            : 2 434 kb/s
Movie name                  : AskYeniden-E01
Encoded date                : UTC 2018-05-07 12:47:03
Writing application         : DVDFab 10.0.6.8
Writing library             : libebml v1.3.4 + libmatroska v1.4.5

Video
ID                          : 1
Format                      : AVC
Format/Info                 : Advanced Video Codec
Format profile              : [email protected]
Format settings             : CABAC / 3 Ref Frames
Format settings, CABAC      : Yes
Format settings, RefFrames  : 3 frames
Codec ID                    : V_MPEG4/ISO/AVC
Duration                    : 1 h 43 min
Bit rate                    : 2 304 kb/s
Width                       : 1 280 pixels
Height                      : 720 pixels
Display aspect ratio        : 16:9
Frame rate mode             : Constant
Frame rate                  : 25.000 FPS
Color space                 : YUV
Chroma subsampling          : 4:2:0
Bit depth                   : 8 bits
Scan type                   : Progressive
Bits/(Pixel*Frame)          : 0.100
Stream size                 : 1.66 GiB (95%)
Writing library             : x264 core 148
Encoding settings           : cabac=1 / ref=3 / deblock=1:-1:-1 / analyse=0x3:0 / me=hex / subme=5 / psy=1 / psy_rd=1.00:0.00 / mixed_ref=0 / me_range=16 / chroma_me=1 / trellis=1 / 8x8dct=1 / cqm=0 / deadzone=21,11 / fast_pskip=0 / chroma_qp_offset=0 / threads=8 / lookahead_threads=2 / sliced_threads=0 / nr=0 / decimate=1 / interlaced=0 / bluray_compat=0 / constrained_intra=0 / bframes=2 / b_pyramid=0 / b_adapt=1 / b_bias=0 / direct=1 / weightb=0 / open_gop=0 / weightp=0 / keyint=24 / keyint_min=2 / scenecut=40 / intra_refresh=0 / rc=abr / mbtree=0 / bitrate=2304 / ratetol=1.0 / qcomp=0.60 / qpmin=0 / qpmax=69 / qpstep=4 / ip_ratio=1.40 / pb_ratio=1.30 / aq=1:1.00
Default                     : Yes
Forced                      : No
Color range                 : Limited
Color primaries             : BT.709
Transfer characteristics    : BT.709
Matrix coefficients         : BT.709

Audio
ID                          : 2
Format                      : AC-3
Format/Info                 : Audio Coding 3
Format settings, Endianness : Big
Codec ID                    : A_AC3
Duration                    : 1 h 43 min
Bit rate mode               : Constant
Bit rate                    : 128 kb/s
Channel(s)                  : 2 channels
Channel positions           : Front: L R
Sampling rate               : 44.1 kHz
Frame rate                  : 28.711 FPS (1536 SPF)
Bit depth                   : 16 bits
Compression mode            : Lossy
Stream size                 : 94.5 MiB (5%)
Service kind                : Complete Main
Default                     : Yes
Forced                      : No


qO4Dexcl.png

Hidden Content
You'll be able to see the hidden content once you reply to this topic.

  • Like 1

Share this post


Link to post
Share on other sites
POPIKOSTAS

Προστέθηκε το 9.

Share this post


Link to post
Share on other sites
nstauroulias

ευχαριστω

Share this post


Link to post
Share on other sites
POPIKOSTAS

Προστέθηκε το 10.

Share this post


Link to post
Share on other sites
POPIKOSTAS

Προστέθηκε το 11.

Share this post


Link to post
Share on other sites
POPIKOSTAS

Αντικαταστάθηκε το επεισόδιο 12.

Share this post


Link to post
Share on other sites
POPIKOSTAS

Προστέθηκε το 13.

Share this post


Link to post
Share on other sites
helendr

ευχαριστω

Share this post


Link to post
Share on other sites
POPIKOSTAS

Προστέθηκε το 14-15.

Share this post


Link to post
Share on other sites
POPIKOSTAS

Προστέθηκε το 16.

Share this post


Link to post
Share on other sites
Falia1970

ευχαριστω

Share this post


Link to post
Share on other sites
POPIKOSTAS

Προστέθηκε το 17.

Share this post


Link to post
Share on other sites
fotini goumas
Στις ‎18‎/‎2‎/‎2019 στις 2:10 ΜΜ, POPIKOSTAS είπε

 

TaalCvIh.png

ASK YENIDEN-ΕΡΩΤΑΣ ΞΑΝΑ (2015) 720p HDTv-ΕΝΣΩΜΑΤΩΜΕΝΟΙ ΥΠΟΤΙΤΛΟΙ

oaseRjWh.jpg

Stars: Özge Özpirinçci, Bugra Gülsoy, Tamer Levent

Η αναμενόμενη σειρά του FoxTV “AΕΕΈkYeninden- Έρωτας ξανά” που είναι παραγωγή της εταιρείας SΓΌreΓ§Film, με πρωταγωνιστές τους: BuΔΕΈra GΓΌlsoy, Γ–zge Γ–zpΔ±rΔ±nΓ§cΔ±, Mert Γ–ner και CanSipahi, άρχισε γυρίσματα αυτό το μήνα στην Αμερική. Πρόκειται για μια ρομαντική κομεντί για δυο νέους ανθρώπους που συναντιούνται σ’ ένα αεροπλάνο.
H Ζευνέπ αφήνει την οικογένεια της και τους αγαπημένους της και φεύγει για την Αμερική ακολουθώντας τον φίλο της Ερτάν, όμως αναγκάζεται να επιστρέψει στην Τουρκία με κατεστραμμένα όνειρα και ένα μωρό στα χέρια της. Από την άλλη πλευρά έχουμε τον Φατίχ, ο οποίος είχε πάει στην Αμερική για σπουδές και τώρα ήρθε και η δική του ώρα να επιστρέψει στη χώρα του και στην οικογένεια του, με τα δικά του κατεστραμμένα όνειρα. Αυτή είναι η ιστορία δυο ανθρώπων που ζουν δυο πολύ διαφορετικές ζωές και που οι δρόμοι τους συναντιούνται καθώς επιστρέφουν στο σπίτι τους.
Η σειρά έκανε πρεμιέρα στο FoxTV τον Φεβρουάριο του 2015.

[video=youtube;rO19KxmmcGg]https://www.youtube.com/watch?v=rO19KxmmcGg[/video]

 

https://www.imdb.com/title/tt5616644/

 

tvqnUqJh.jpg

ΤΕΧΝΙΚΑ ΧΑΡΑΚΤΗΡΙΣΤΙΚΑ


General
Complete name               : KSANAGAPHSAME.S01E01.mkv
Format                      : Matroska
Format version              : Version 2
File size                   : 1.76 GiB
Duration                    : 1 h 43 min
Overall bit rate            : 2 434 kb/s
Movie name                  : AskYeniden-E01
Encoded date                : UTC 2018-05-07 12:47:03
Writing application         : DVDFab 10.0.6.8
Writing library             : libebml v1.3.4 + libmatroska v1.4.5

  Εμφάνιση κρυμμένων περιεχομένων

Video
ID                          : 1
Format                      : AVC
Format/Info                 : Advanced Video Codec
Format profile              : [email protected]
Format settings             : CABAC / 3 Ref Frames
Format settings, CABAC      : Yes
Format settings, RefFrames  : 3 frames
Codec ID                    : V_MPEG4/ISO/AVC
Duration                    : 1 h 43 min
Bit rate                    : 2 304 kb/s
Width                       : 1 280 pixels
Height                      : 720 pixels
Display aspect ratio        : 16:9
Frame rate mode             : Constant
Frame rate                  : 25.000 FPS
Color space                 : YUV
Chroma subsampling          : 4:2:0
Bit depth                   : 8 bits
Scan type                   : Progressive
Bits/(Pixel*Frame)          : 0.100
Stream size                 : 1.66 GiB (95%)
Writing library             : x264 core 148
Encoding settings           : cabac=1 / ref=3 / deblock=1:-1:-1 / analyse=0x3:0 / me=hex / subme=5 / psy=1 / psy_rd=1.00:0.00 / mixed_ref=0 / me_range=16 / chroma_me=1 / trellis=1 / 8x8dct=1 / cqm=0 / deadzone=21,11 / fast_pskip=0 / chroma_qp_offset=0 / threads=8 / lookahead_threads=2 / sliced_threads=0 / nr=0 / decimate=1 / interlaced=0 / bluray_compat=0 / constrained_intra=0 / bframes=2 / b_pyramid=0 / b_adapt=1 / b_bias=0 / direct=1 / weightb=0 / open_gop=0 / weightp=0 / keyint=24 / keyint_min=2 / scenecut=40 / intra_refresh=0 / rc=abr / mbtree=0 / bitrate=2304 / ratetol=1.0 / qcomp=0.60 / qpmin=0 / qpmax=69 / qpstep=4 / ip_ratio=1.40 / pb_ratio=1.30 / aq=1:1.00
Default                     : Yes
Forced                      : No
Color range                 : Limited
Color primaries             : BT.709
Transfer characteristics    : BT.709
Matrix coefficients         : BT.709

Audio
ID                          : 2
Format                      : AC-3
Format/Info                 : Audio Coding 3
Format settings, Endianness : Big
Codec ID                    : A_AC3
Duration                    : 1 h 43 min
Bit rate mode               : Constant
Bit rate                    : 128 kb/s
Channel(s)                  : 2 channels
Channel positions           : Front: L R
Sampling rate               : 44.1 kHz
Frame rate                  : 28.711 FPS (1536 SPF)
Bit depth                   : 16 bits
Compression mode            : Lossy
Stream size                 : 94.5 MiB (5%)
Service kind                : Complete Main
Default                     : Yes
Forced                      : No

 


qO4Dexcl.png

 

Hidden Content
You'll be able to see the hidden content once you reply to this topic.

 

 

ΕΥΧΑΡΙΣΤΩ

Share this post


Link to post
Share on other sites
POPIKOSTAS

Προστέθηκε το 18.

Share this post


Link to post
Share on other sites
POPIKOSTAS

Προστέθηκε το 19.

Share this post


Link to post
Share on other sites
POPIKOSTAS

Προστέθηκε το 20.

Share this post


Link to post
Share on other sites
AngelWht

Ευχαριστουμε πολύ Popikostas!

Share this post


Link to post
Share on other sites

Create an account or sign in to comment

You need to be a member in order to leave a comment

Create an account

Sign up for a new account in our community. It's easy!

Register a new account

Sign in

Already have an account? Sign in here.

Sign In Now

×