Jump to content
Sign in to follow this  
loufjohn

SURVIVOR ΕΛΛΑΔΑ-ΤΟΥΡΚΙΑ (2019) SKAI WEBRip AVI ΕΩΣ 109

Recommended Posts

loufjohn

SURVIVOR ΕΛΛΑΔΑ-ΤΟΥΡΚΙΑ (2019) SKAI WEBRip AVI


jZyCVl6l.jpg


IaXZX9E.png


Το αυθεντικό ριάλιτι επιβίωσης επιστρέφει. Δύο ομάδες: ΕΛΛΑΔΑ – ΤΟΥΡΚΙΑ.

Με 12 παίκτες η κάθε ομάδα. Όλοι είναι έτοιμοι να δώσουν τον καλύτερο τους εαυτό για να επιβιώσουν στις παραλίες του Άγιου Δομίνικου. Από αυτές τις δύο ομάδες μόνο
ένας διαγωνιζόμενος θα είναι αυτός που θα επικρατήσει στο τέλος και θα είναι ο νικητής που θα λάβει το μεγάλο έπαθλο.

Κατά τη διάρκεια της διαμονής τους στο εξωτικό νησί οι διαγωνιζόμενοι θα συμμετέχουν σε απαιτητικά παιχνίδια και δοκιμασίες, με αποτέλεσμα να δοκιμαστούν όχι
μόνο οι σωματικές αντοχές τους αλλά και οι ψυχικές ώστε να διασφαλίσουν μια θέση στο παιχνίδι. Με τις πιο σύγχρονες τεχνολογίες το κοινό θα είναι σε θέση
να παρακολουθεί τους διαγωνιζόμενους σε κάθε τους κίνηση, στην προσπάθειά τους να ξεπεράσουν τα εμπόδια και τους συμπαίκτες τους, για να φτάσουν στον έναν
και μοναδικό «Survivor».

Παρουσίαση: Σάκης Τανιμανίδης.

2V9nbDH.png

6KTXyhc.png

zbdCkFMl.jpg

sNfCVWD.png

General

Complete name                  : Survivor.2019.EP.01.avi
Format                         : AVI
Format/Info                    : Audio Video Interleave
File size                      : 2.71 GiB
Duration                       : 2 h 22 min
Overall bit rate               : 2 718 kb/s

Video
ID                             : 0
Format                         : AVC
Format/Info                    : Advanced Video Codec
Format profile                 : [email protected]
Format settings                : 1 Ref Frames
Format settings, CABAC         : No
Format settings, ReFrames      : 1 frame
Codec ID                       : H264
Duration                       : 2 h 22 min
Bit rate                       : 2 577 kb/s
Width                          : 1 280 pixels
Height                         : 720 pixels
Display aspect ratio           : 16:9
Frame rate                     : 25.000 FPS
Color space                    : YUV
Chroma subsampling             : 4:2:0
Bit depth                      : 8 bits
Scan type                      : Progressive
Bits/(Pixel*Frame)             : 0.112
Stream size                    : 2.57 GiB (95%)
Writing library                : x264 core 152 r2854 e9a5903

Audio
ID                             : 1
Format                         : MPEG Audio
Format version                 : Version 1
Format profile                 : Layer 3
Codec ID                       : 55
Codec ID/Hint                  : MP3
Duration                       : 2 h 22 min
Bit rate mode                  : Constant
Bit rate                       : 128 kb/s
Channel(s)                     : 2 channels
Sampling rate                  : 48.0 kHz
Compression mode               : Lossy
Stream size                    : 131 MiB (5%)
Alignment                      : Aligned on interleaves
Interleave, duration           : 24  ms (0.60 video frame)

 


     
eKydSyt.jpg


zPAQxlN.png

 

A3VtJrt.png

                         

Hidden Content
You'll be able to see the hidden content once you reply to this topic.

 

Edited by loufjohn
  • Haha 1

Share this post


Link to post
Share on other sites
loufjohn

ΑΝΕΒΗΚΕ ΕΩΣ ΤΟ 02

Share this post


Link to post
Share on other sites
loufjohn

ΑΝΕΒΗΚΕ ΕΩΣ ΤΟ 03

Share this post


Link to post
Share on other sites
loufjohn

ΑΝΕΒΗΚΕ ΕΩΣ ΤΟ 04

Share this post


Link to post
Share on other sites
loufjohn

ΑΝΕΒΗΚΕ ΕΩΣ ΤΟ 05

Share this post


Link to post
Share on other sites
loufjohn

ΑΝΕΒΗΚΕ ΤΟ ΝΕΟ ΕΠΕΙΣΟΔΙΟ Νο 06

Share this post


Link to post
Share on other sites
loufjohn

ΑΝΕΒΗΚΕ ΕΩΣ ΤΟ 07

Share this post


Link to post
Share on other sites
loufjohn

ΑΝΕΒΗΚΕ ΕΩΣ ΤΟ 08

Share this post


Link to post
Share on other sites
loufjohn

ΑΝΕΒΗΚΕ ΕΩΣ 09

Share this post


Link to post
Share on other sites
loufjohn

ΑΝΕΒΗΚΕ ΕΩΣ 10

Share this post


Link to post
Share on other sites
loufjohn

ΑΝΕΒΗΚΕ ΕΩΣ ΤΟ 11

Share this post


Link to post
Share on other sites
loufjohn

ΑΝΕΒΗΚΕ ΕΩΣ ΤΟ 12

Share this post


Link to post
Share on other sites
loufjohn

ΑΝΕΒΗΚΕ ΕΩΣ ΤΟ 13

Share this post


Link to post
Share on other sites
loufjohn

ΑΝΕΒΗΚΕ ΕΩΣ ΤΟ 14

Share this post


Link to post
Share on other sites
loufjohn

ΑΝΕΒΗΚΕ ΕΩΣ ΤΟ 15

Share this post


Link to post
Share on other sites
loufjohn

ΑΝΕΒΗΚΕ ΕΩΣ ΤΟ 16

Share this post


Link to post
Share on other sites
loufjohn

ΑΝΕΒΗΚΕ ΕΩΣ ΤΟ 17

Share this post


Link to post
Share on other sites
loufjohn

ΑΝΕΒΗΚΕ ΕΩΣ 19

Share this post


Link to post
Share on other sites
loufjohn

ΑΝΕΒΗΚΕ ΕΩΣ 20

Share this post


Link to post
Share on other sites
loufjohn

ΑΝΕΒΗΚΕ ΕΩΣ 21

Share this post


Link to post
Share on other sites
loufjohn

ΑΝΕΒΗΚΕ ΕΩΣ 22

Share this post


Link to post
Share on other sites
loufjohn

ΑΝΕΒΗΚΕ ΕΩΣ 23

Share this post


Link to post
Share on other sites
loufjohn

ΑΝΕΒΗΚΕ ΕΩΣ 24

Share this post


Link to post
Share on other sites
loufjohn

ΑΝΕΒΗΚΕ ΕΩΣ 25

Share this post


Link to post
Share on other sites
loufjohn

ΑΝΕΒΗΚΕ ΕΩΣ 26

Share this post


Link to post
Share on other sites
loufjohn

ΑΝΕΒΗΚΕ ΕΩΣ 27

Share this post


Link to post
Share on other sites
loufjohn

ΑΝΕΒΗΚΕ ΕΩΣ 28

Share this post


Link to post
Share on other sites
loufjohn

ΑΝΕΒΗΚΕ ΕΩΣ 29

Share this post


Link to post
Share on other sites
loufjohn

ΑΝΕΒΗΚΕ ΕΩΣ 30

Share this post


Link to post
Share on other sites
thanossayra

εφχαριστοοοοο

Share this post


Link to post
Share on other sites

Create an account or sign in to comment

You need to be a member in order to leave a comment

Create an account

Sign up for a new account in our community. It's easy!

Register a new account

Sign in

Already have an account? Sign in here.

Sign In Now
Sign in to follow this  

×