Sign in to follow this  
POPIKOSTAS

THE INCREDIBLES / ΟΙ ΑΠΙΘΑΝΟΙ (2004) DVDRip | ΜΕΤΑΓΛΩΤΙΣΜΕΝΟ

Recommended Posts

POPIKOSTAS

KIg4IBnh.jpg

THE INCREDIBLES - ΟΙ ΑΠΙΘΑΝΟΙ (2004)-DVDRip-ΜΕΤΑΓΛΩΤΤΙΣΜΕΝΟ

Dvd Rip απο το original by RONNY, ΜΕΤΑΓΛΩΤΙΣΜΕΝΟ.

Τίτλος ταινίας: THE INCREDIBLES.
Ελληνικός Τίτλος: ΟΙ ΑΠΙΘΑΝΟΙ.
Έτος παραγωγής: 2004 (Ελλάδα ΜΑΡ 2005).
Είδος ταινίας: Κινούμενα Σχέδια, Παιδικά.
Στούντιο Παραγωγής: Pixar / Disney.
Γλώσσα ομιλίας: Ελληνικά (Μεταγλωτισμένο).
Διάρκεια ταινίας: 1 ώρα 51 λεπτά.
Σκηνοθεσία: Brad Bird.
Ηθοποιοί (Μεταγλώτιση): Δημήτρης Σταρόβας (Κύριος Απίθανος), Σμαράγδα Καρύδη (Ελαστίνα), Νέστορας Κοψίδας (Ψύχτρας), Τηλέμαχος Κρεβάιχας (Σύνδρομος / Κολλητός) κ.ά.

Όταν η κοινή γνώμη στρέφεται εναντίων των υπερηρώων, ο Mr. Incredible είναι ένας από τους πολλούς που αναγκάζεται μέσω ενός ιδιότυπου «προγράμματος προστασίας» να αποσυρθεί από την ενεργό δράση και να ζήσει μια φυσιολογική ζωή, κρατώντας κρυφές τις ξεχωριστές ικανότητές του. Όμως μετά από 15 χρόνια βαρετού οικογενειακού βίου, με γυναίκα και παιδιά (επίσης υπερήρωες), αποφασίζει να αποδεχτεί μια νέα μυστική αποστολή εγκαταλείποντας την καριέρα ως ασφαλιστής. Η αποστολή όμως δεν είναι τόσο αθώα όσο φαίνεται και σύντομα η οικογένεια των Incredibles θα μπλέξει σε μια απίστευτη περιπέτεια, γεμάτη απρόβλεπτα και ανατροπές.

Οι «Ιncredibles» είναι ο τελευταίος καρπός της συνεργασίας Pixar και Disney, αποτελώντας ό,τι καλύτερο έχει να επιδείξει μέχρι στιγμής ο χώρος του δυτικού animation. Μετά τις μεγάλες επιτυχίες των Monsters Inc και Finding Nemo, οι fans των κινουμένων σχεδίων - και όχι μόνο- θα ξετρελαθούν με αυτή την «κινούμενη» περιπέτεια, που εκμεταλλεύεται στο έπακρο την τεχνολογική εξέλιξη. Πρόκειται για την πρώτη ταινία της Pixar που έχει ως ήρωες ανθρώπινους χαρακτήρες και οι δημιουργοί της προσπάθησαν να προσδώσουν τη μεγαλύτερη δυνατή αληθοφάνεια: 3D σχέδια, μαλλιά που αλληλεπιδρούν με τις καιρικές συνθήκες, μυς και φυσικό δέρμα, αλλά και 150 διαφορετικά κοστούμια, είναι μερικές μόνο από τις καινοτομίες των Απίθανων.

Αλλά οι 1800 περίπου υπολογιστές που χρησιμοποιήθηκαν για τη δημιουργία της ταινίας δεν αποτελούν το μοναδικό λόγο για τον οποίο οι Incredibles είναι must. Το σφιχτοδεμένο σενάριο περιλαμβάνει αμέτρητες αναφορές σε ταινίες με super-ήρωες, αγγίζοντας πολλές φοές τα όρια της παρωδίας. Ευρηματικές ανατροπές, απολαυστικές σκηνές με τους καταπιεσμένους υπερήρωες που αποζητούν τη δράση αλλά και κλασικές οικογενειακές καταστάσεις συνθέτουν μια ταινία που θα αγαπήσουν οι μικροί και θα εκτιμήσουν περισσότερο οι μεγάλοι. Και όλα αυτά επενδυμένα με τη γνωστή δόση χιούμορ που η Pixar μας έχει συνηθίσει. Το σίγουρο είναι πως ο ευσπλαχνικός mr. Incredible, η δυναμική Elastic Girl, η «μοιραία-χωρίς-να-το-ξέρει» Violet και οι υπόλοιποι απίθανοι μπόμπιρες θα σας κλέψουν την καρδιά. (cinemanews.gr)

Να ευχαριστήσω τον φίλο Ronny για το εξαιρετικό rip της ταινίας.

screens_zpsfujiylvq.gif

wOwr8sWh.jpg

[video=youtube;CL3ToWztFcE]https://www.youtube.com/watch?v=CL3ToWztFcE[/video]

http://www.imdb.com/title/tt0317705/?ref_=fn_al_tt_2

ΤΕΧΝΙΚΑ ΧΑΡΑΚΤΗΡΙΣΤΙΚΑ


General
Complete name : The Incredibles (2004).avi
Format : AVI
Format/Info : Audio Video Interleave
File size : 1.36 GiB
Duration : 1h 50mn
Overall bit rate : 1 760 Kbps

Video
ID : 0
Format : MPEG-4 Visual
Format profile : Advanced [email protected]
Format settings, BVOP : 2
Format settings, QPel : No
Format settings, GMC : No warppoints
Format settings, Matrix : Default (H.263)
Codec ID : XVID
Codec ID/Hint : XviD
Duration : 1h 50mn
Bit rate : 1 368 Kbps
Width : 720 pixels
Height : 304 pixels
Display aspect ratio : 2.35:1
Frame rate : 25.000 fps
Color space : YUV
Chroma subsampling : 4:2:0
Bit depth : 8 bits
Scan type : Progressive
Compression mode : Lossy
Bits/(Pixel*Frame) : 0.250
Stream size : 1.06 GiB (78%)
Writing library : XviD 1.2.1 (UTC 2008-12-04)

Audio
ID : 1
Format : AC-3
Format/Info : Audio Coding 3
Mode extension : CM (complete main)
Codec ID : 2000
Duration : 1h 50mn
Bit rate mode : Constant
Bit rate : 384 Kbps
Channel(s) : 6 channels
Channel positions : Front: L C R, Side: L R, LFE
Sampling rate : 48.0 KHz
Bit depth : 16 bits
Compression mode : Lossy
Stream size : 304 MiB (22%)
Alignment : Aligned on interleaves
Interleave, duration : 64 ms (1.60 video frames)
Interleave, preload duration : 192 ms


qO4Dexcl.png

Hidden Content
You'll be able to see the hidden content once you reply to this topic.

Share this post


Link to post
Share on other sites

Create an account or sign in to comment

You need to be a member in order to leave a comment

Create an account

Sign up for a new account in our community. It's easy!

Register a new account

Sign in

Already have an account? Sign in here.

Sign In Now
Sign in to follow this