Jump to content
Sign in to follow this  
POPIKOSTAS

SHEEPS AND WOLVES - ΠΡΟΒΑΤΑ ΕΝΑΝΤΙΟΝ ΛΥΚΩΝ (2016) OWN DVDRip - ΜΕΤΑΓΛΩΤΤΙΣΜΕΝΟ

Recommended Posts

POPIKOSTAS

rGHagVMh.jpg

SHEEPS AND WOLVES - ΠΡΟΒΑΤΑ ΕΝΑΝΤΙΟΝ ΛΥΚΩΝ (2016) OWN DVDRip - ΜΕΤΑΓΛΩΤΤΙΣΜΕΝΟ

ΠΛΗΡΟΦΟΡΙΕΣ

Directors: Andrey Galat, Maxim Volkov
Writers: Neil Landau (english version), Ethan Reiff (additional scenes written by), Maksim Sveshnikov, Joe Vitale (additional dialogue), Cyrus Voris (additional scenes written by)
Stars: Alexander Petrov, Sergey Bezrukov, Elizaveta Boyarskaya

ΥΠΟΘΕΣΗ

Σε ένα μαγευτικό μακρινό μέρος, υπάρχει ένα γραφικό μικρό χωριό που βρίσκεται ανάμεσα σε πράσινα λιβάδια και μεγάλους λόφους. Εκεί ζει ένα κοπάδι από ξέγνοιαστα πρόβατα όμορφα και ειρηνικά, μέχρι που η γαλήνη τους διαταράσσεται όταν ένα κοπάδι λύκων εγκαθίσταται σε κοντινή απόσταση.

- Παραλειπόμενα:

Τεχνική: Computer-animated (ψηφιακό)

XJldSToh.jpg

[video]https://www.youtube.com/watch?v=mHimvUy7ZQk[/video]

https://www.imdb.com/title/tt3746824/?ref_=ttfc_fc_tt

ΤΕΧΝΙΚΑ ΧΑΡΑΚΤΗΡΙΣΤΙΚΑ


General
Complete name               : PROBATOKAILYKOS.2016.mkv
Format                      : Matroska
Format version              : Version 2
File size                   : 1.85 GiB
Duration                    : 1 h 21 min
Overall bit rate            : 3 250 kb/s
Movie name                  : PROBATOKAILYKOS.2016
Encoded date                : UTC 2019-01-23 07:50:04
Writing application         : DVDFab 9.1.7.1
Writing library             : libebml v0.7.8 + libmatroska v0.8.1

Video
ID                          : 1
Format                      : AVC
Format/Info                 : Advanced Video Codec
Format profile              : [email protected]
Format settings             : CABAC / 2 Ref Frames
Format settings, CABAC      : Yes
Format settings, ReFrames   : 2 frames
Codec ID                    : V_MPEG4/ISO/AVC
Duration                    : 1 h 21 min
Bit rate                    : 2 800 kb/s
Width                       : 720 pixels
Height                      : 300 pixels
Display aspect ratio        : 2.40:1
Frame rate mode             : Constant
Frame rate                  : 25.000 FPS
Color space                 : YUV
Chroma subsampling          : 4:2:0
Bit depth                   : 8 bits
Scan type                   : Progressive
Bits/(Pixel*Frame)          : 0.519
Stream size                 : 1.55 GiB (84%)
Writing library             : x264 core 142
Encoding settings           : cabac=1 / ref=1 / deblock=1:-1:-1 / analyse=0x3:0 / me=hex / subme=5 / psy=0 / mixed_ref=0 / me_range=16 / chroma_me=1 / trellis=0 / 8x8dct=1 / cqm=0 / deadzone=21,11 / fast_pskip=1 / chroma_qp_offset=0 / threads=4 / lookahead_threads=1 / sliced_threads=0 / nr=0 / decimate=1 / interlaced=0 / bluray_compat=0 / constrained_intra=0 / bframes=2 / b_pyramid=0 / b_adapt=1 / b_bias=0 / direct=1 / weightb=1 / open_gop=0 / weightp=0 / keyint=24 / keyint_min=13 / scenecut=40 / intra_refresh=0 / rc=2pass / mbtree=0 / bitrate=2800 / ratetol=1.0 / qcomp=0.60 / qpmin=0 / qpmax=69 / qpstep=4 / cplxblur=20.0 / qblur=0.5 / ip_ratio=1.40 / pb_ratio=1.30 / aq=1:1.00
Default                     : Yes
Forced                      : No
Color range                 : Limited
Color primaries             : BT.601 NTSC
Transfer characteristics    : BT.709
Matrix coefficients         : BT.601

Audio
ID                          : 2
Format                      : AC-3
Format/Info                 : Audio Coding 3
Commercial name             : Dolby Digital
Codec ID                    : A_AC3
Duration                    : 1 h 21 min
Bit rate mode               : Constant
Bit rate                    : 448 kb/s
Channel(s)                  : 6 channels
Channel layout              : L R C LFE Ls Rs
Sampling rate               : 48.0 kHz
Frame rate                  : 31.250 FPS (1536 SPF)
Bit depth                   : 16 bits
Compression mode            : Lossy
Stream size                 : 261 MiB (14%)
Language                    : Greek
Service kind                : Complete Main
Default                     : Yes
Forced                      : No


1MFWSWwh.png

Hidden Content
You'll be able to see the hidden content once you reply to this topic.

Share this post


Link to post
Share on other sites
tdm900

THANKS!!!!!!!

Share this post


Link to post
Share on other sites
trifili

ευχαριστω

Share this post


Link to post
Share on other sites
achilbax
Στις 24/1/2019 στις 8:36 ΠΜ, POPIKOSTAS είπε

ΕΥΧΑΡΙΣΤΩ

https://www.imdb.com/title/tt3746824/?ref_=ttfc_fc_tt
  Εμφάνιση κρυμμένων περιεχομένων

Video
ID                          : 1
Format                      : AVC
Format/Info                 : Advanced Video Codec
Format profile              : [email protected]
Format settings             : CABAC / 2 Ref Frames
Format settings, CABAC      : Yes
Format settings, ReFrames   : 2 frames
Codec ID                    : V_MPEG4/ISO/AVC
Duration                    : 1 h 21 min
Bit rate                    : 2 800 kb/s
Width                       : 720 pixels
Height                      : 300 pixels
Display aspect ratio        : 2.40:1
Frame rate mode             : Constant
Frame rate                  : 25.000 FPS
Color space                 : YUV
Chroma subsampling          : 4:2:0
Bit depth                   : 8 bits
Scan type                   : Progressive
Bits/(Pixel*Frame)          : 0.519
Stream size                 : 1.55 GiB (84%)
Writing library             : x264 core 142
Encoding settings           : cabac=1 / ref=1 / deblock=1:-1:-1 / analyse=0x3:0 / me=hex / subme=5 / psy=0 / mixed_ref=0 / me_range=16 / chroma_me=1 / trellis=0 / 8x8dct=1 / cqm=0 / deadzone=21,11 / fast_pskip=1 / chroma_qp_offset=0 / threads=4 / lookahead_threads=1 / sliced_threads=0 / nr=0 / decimate=1 / interlaced=0 / bluray_compat=0 / constrained_intra=0 / bframes=2 / b_pyramid=0 / b_adapt=1 / b_bias=0 / direct=1 / weightb=1 / open_gop=0 / weightp=0 / keyint=24 / keyint_min=13 / scenecut=40 / intra_refresh=0 / rc=2pass / mbtree=0 / bitrate=2800 / ratetol=1.0 / qcomp=0.60 / qpmin=0 / qpmax=69 / qpstep=4 / cplxblur=20.0 / qblur=0.5 / ip_ratio=1.40 / pb_ratio=1.30 / aq=1:1.00
Default                     : Yes
Forced                      : No
Color range                 : Limited
Color primaries             : BT.601 NTSC
Transfer characteristics    : BT.709
Matrix coefficients         : BT.601

Audio
ID                          : 2
Format                      : AC-3
Format/Info                 : Audio Coding 3
Commercial name             : Dolby Digital
Codec ID                    : A_AC3
Duration                    : 1 h 21 min
Bit rate mode               : Constant
Bit rate                    : 448 kb/s
Channel(s)                  : 6 channels
Channel layout              : L R C LFE Ls Rs
Sampling rate               : 48.0 kHz
Frame rate                  : 31.250 FPS (1536 SPF)
Bit depth                   : 16 bits
Compression mode            : Lossy
Stream size                 : 261 MiB (14%)
Language                    : Greek
Service kind                : Complete Main
Default                     : Yes
Forced                      : No

 

 

 

Share this post


Link to post
Share on other sites
GEKAS

thank hellas  good morning

Share this post


Link to post
Share on other sites
*Tulip*

thanks

Share this post


Link to post
Share on other sites
givelo

Thank you!

Share this post


Link to post
Share on other sites
kanenas

thank you!

 

Share this post


Link to post
Share on other sites
arkan1981

thanks

Share this post


Link to post
Share on other sites

Create an account or sign in to comment

You need to be a member in order to leave a comment

Create an account

Sign up for a new account in our community. It's easy!

Register a new account

Sign in

Already have an account? Sign in here.

Sign In Now
Sign in to follow this  

×