Jump to content
POPIKOSTAS

αισθηματική YABANCI DAMAT / ΤΑ ΣΥΝΟΡΑ ΤΗΣ ΑΓΑΠΗΣ (2004) DVDRip | ΕΝΣΩΜΑΤΩΜΕΝΟΙ ΥΠΟΤΙΤΛΟΙ

Recommended Posts

POPIKOSTAS

TFJtyePl.jpg

YABANCI DAMAT / ΤΑ ΣΥΝΟΡΑ ΤΗΣ ΑΓΑΠΗΣ (2004) DVDRip | ΕΝΣΩΜΑΤΩΜΕΝΟΙ ΥΠΟΤΙΤΛΟΙ

http://www.imdb.com/title/tt0434735/?ref_=fn_al_tt_1[/CODE]
	[img=http://i.imgur.com/hWFCCbqh.jpg]
	Ηθοποιοί: Νεχίρ Ερντογάν (Ναζλί), Οζγκιούρ Τσεβίκ (Νίκος), Τουλίν Οράλ (Ευταλία),
Μάζλουμ Κιπέρ (Σταύρος), Νιλγκιούν Μπελγκιούν (Κατίνα),Ενγκίν Ακγιουρέκ (Καντίρ), Ερντάλ Οζγιαγτζιλάρ (Καχραμάν)…
Υπότιτλοι: Ελληνικοί ενσωματωμένοι
	Υπόθεση:
Τα σύνορα της αγάπης είναι ο ελληνικός τίτλος της τούρκικης τηλεοπτικής σειράς «YabancΔ± Damat» που μεταφράζεται ως «Ξένος Γαμπρός». Η σειρά περιγράφει τον έρωτα ανάμεσα σε έναν Έλληνα και μία Τουρκάλα, και τα προβλήματα που δημιουργούνται στη σχέση τους εξαιτίας των συγγενών τους.Η Ναζλί Μπακλαβατζίογλου, κόρη του πιο επιτυχημένου μπακλαβατζή της επαρχειακής πόλης Γκαζιάντεπ στη Νότια Τουρκία, έχει μόλις επιστρέψει στο πατρικό της μετά από τις σπουδές της στην Άγκυρα. Επαναστάτρια από τη φύση της, δεν δέχεται να παντρευτεί τον Καντίρ, γιο του οικογενειακού φίλου του πατέρα της Οκές, που ο πατέρας της Καχραμάν της προξενεύει και έτσι παίρνει την απόφαση να το σκάσει από το σπίτι της. Πηγαίνει στην πόλη Μπόντρουμ, που βρίσκεται ακριβώς απέναντι από την Σύμη, και φιλοξενείται από μια φίλη της από το πανεπιστήμιο. Το πρώτο κιόλας βράδυ της παραμονής της στο Μπόντρουμ γνωρίζει τον Νίκο, γιο ενός πασίγνωστου Έλληνα επιχειρηματία σε ένα μπαρ. Αν και αρχικά οι δυο τους έρχονται σε σύγκρουση όταν εκείνος αποκαλύπτει την καταγωγή της, την επόμενη μέρα ξανασυναντιούνται, όταν κλέφτες παίρνουν την τσάντα της Ναζλί και ο Νίκος, που κατά τύχη βρίσκεται στο σημείο του συμβάντος την βοηθάει. Η Ναζλί, κουρασμένη από μια δύσκολη μέρα, αποκοιμάται στο ιδιωτικό σκάφος του Νίκου, χωρίς εκείνος να το γνωρίζει. Όταν ξυπνάει, αντιλαμβάνεται πως βρίσκεται στην άλλη πλευρά του Αιγαίου, στη νησί της Σύμης. Ο Νίκος και η Ναζλί θα περάσουν ευχάριστες αλλά και δύσκολες στιγμές στο ελληνικό νησί και θα ερωτευτούν ο ένας τον άλλο. Οι οικογένειες τους όμως, και ιδιαίτερα οι παππούδες τους, δεν θα πάρουν με καλό μάτι αυτόν τον δεσμό και θα κάνουν τα πάντα για να τους χωρίσουν...
	[IMG=http://i.imgur.com/wePFuZ8l.jpg]
	ΤΕΧΝΙΚΑ ΧΑΡΑΚΤΗΡΙΣΤΙΚΑ
	[spoiler]
General
Complete name                            : Yabanci.Damat.S01E24.DVDRip.XviD.avi
Format                                   : AVI
Format/Info                              : Audio Video Interleave
File size                                : 897 MiB
Duration                                 : 55mn 5s
Overall bit rate                         : 2 276 Kbps
Writing application                      : FairUse Wizard - [url]http://fairusewizard.com[/url]
Writing library                          : The best and REALLY easy backup tool
	Video
ID                                       : 0
Format                                   : MPEG-4 Visual
Format profile                           : Advanced [email protected]
Format settings, BVOP                    : 1
Format settings, QPel                    : No
Format settings, GMC                     : No warppoints
Format settings, Matrix                  : Default (MPEG)
Muxing mode                              : Packed bitstream
Codec ID                                 : XVID
Codec ID/Hint                            : XviD
Duration                                 : 55mn 5s
Bit rate                                 : 2 010 Kbps
Width                                    : 720 pixels
Height                                   : 512 pixels
Display aspect ratio                     : 1.406
Frame rate                               : 25.000 fps
Color space                              : YUV
Chroma subsampling                       : 4:2:0
Bit depth                                : 8 bits
Scan type                                : Progressive
Compression mode                         : Lossy
Bits/(Pixel*Frame)                       : 0.218
Stream size                              : 792 MiB (88%)
Writing library                          : XviD 1.2.0.dev47 (UTC 2006-11-01)
	Audio
ID                                       : 1
Format                                   : AC-3
Format/Info                              : Audio Coding 3
Mode extension                           : CM (complete main)
Format settings, Endianness              : Big
Codec ID                                 : 2000
Duration                                 : 55mn 5s
Bit rate mode                            : Constant
Bit rate                                 : 256 Kbps
Channel count                            : 2 channels
Channel positions                        : Front: L R
Sampling rate                            : 48.0 KHz
Bit depth                                : 16 bits
Compression mode                         : Lossy
Stream size                              : 101 MiB (11%)
Alignment                                : Split accross interleaves
Interleave, duration                     : 40 ms (1.00 video frame)
Interleave, preload duration             : 500 ms
[/spoiler]
	
[img=http://i.imgur.com/qO4Dexcl.png]
	

Hidden Content
You'll be able to see the hidden content once you reply to this topic.

  • Like 4

Share this post


Link to post
Share on other sites

Create an account or sign in to comment

You need to be a member in order to leave a comment

Create an account

Sign up for a new account in our community. It's easy!

Register a new account

Sign in

Already have an account? Sign in here.

Sign In Now

×