Jump to content
Sign in to follow this  
POPIKOSTAS

δράμα STORIE DI ORDINARIA FOLLIA-ΕΡΩΤΙΚΕΣ ΙΣΤΟΡΙΕΣ ΚΑΘΗΜΕΡΙΝΗΣ ΤΡΕΛΑΣ (1981) DVDRip - ΕΝΣΩΜΑΤΩΜΕΝΟΙ ΥΠΟΤΙΤΛΟΙ

Recommended Posts

POPIKOSTAS

qnLM7zyh.jpg

STORIE DI ORDINARIA FOLLIA-ΕΡΩΤΙΚΕΣ ΙΣΤΟΡΙΕΣ ΚΑΘΗΜΕΡΙΝΗΣ ΤΡΕΛΑΣ (1981) DVDRip - ΕΝΣΩΜΑΤΩΜΕΝΟΙ ΥΠΟΤΙΤΛΟΙ

ZK72smph.jpg

Σκηνοθεσία: Marco Ferreri
Σενάριο: Marco Ferreri, Sergio Amidei, Anthony Foutz, Marco Ferreri,  
Sergio Amidei, από το βιβλίο του Charles Bukowski
Ηθοποιοί: Ben Gazzara, Ornella Muti, Susan Tyrrell, Tanya Lopert, Roy Brocksmith, Katya Berger, Judith Drake
Μουσική: Philippe Sarde
Φωτογραφία: Tonino Delli Colli
Μοντάζ: Ruggero Mastroianni
Έτος: 1981
Διάρκεια: 1h:36m:29s
Είδος: Drama
Χώρα: Ιταλία, Γαλλία
Γλώσσα: Αγγλικά
Υπότιτλοι: Ελληνικά, ενσωματωμένοι στο container, από το original DVD.
Χρώμα: Έγχρωμο
DVDRip, SubRip, Προσαρμογή-Συγχρονισμός: Lafistios
Source: PAL DVD5

Μεταφορά στη μεγάλη οθόνη, από τον Ιταλό σκηνοθέτη Μάρκο Φερέρι, του ομότιτλου αυτοβιογραφικού μυθιστορήματος του Τσαρλς Μπουκόφσκι, που αποτέλεσε ένα από τα δημοφιλέστερα αναγνώσματα της δεκαετίας του ’80. Η ταινία, τολμηρή όσο και το μυθιστόρημα, αφήνει ωστόσο και μια πικρή γεύση, καθώς καταγράφει την απόλυτη μοναξιά ενός ήρωα που αναζητούσε τη διαφυγή μέσα από το ποτό και τους εφήμερους έρωτες. Στους δύο κεντρικούς ρόλους ο Μπεν Γκαζάρα και η Ορνέλα Μούτι.

Περιπλανώμενος σε έναν άχαρο και εσωστρεφή κόσμο, κάτω από τον καυτό αποδιωχτικό ήλιο του Λος Άντζελες, ο συγγραφέας Τσαρλς Σίρκιν πνίγει με ταχύτατους ρυθμούς τα καθημερινά ζόρια της ζωής και τις αναμνήσεις των σεξουαλικών του κατακτήσεων, νεότερων και παλιότερων, στο φτηνό ποτό. Η γνωριμία του με μια αινιγματική νεαρή πόρνη, την Κας, θα δώσει μια πνοή στο μίζερο εικοσιτετράωρο του, αφού η ερωτική σχέση που θα αναπτυχθεί μεταξύ τους θα είναι φλογερή. Δυστυχώς για εκείνη, η προσφορά από ένα εκδοτικό οίκο της Νέα Υόρκης θα υποχρεώσει τον μεσήλικα Τσαρλς να μεταβεί στο Big Apple και να την εγκαταλείψει ολομόναχη, διατηρώντας το ερωτηματικό μέσα του για τι θα είχε συμβεί εάν είχε επιλέξει να ακολουθήσουν ένα κοινό μέλλον. Γυρνώντας στην Πόλη των Αγγέλων για να την αναζητήσει, θα πληροφορηθεί πως η Κας έχει αυτοκτονήσει, γεγονός που θα τον ωθήσει και πάλι στην ερήμωση.

«Άλλωστε το διόδιο για την κατάκτηση της αιώνιας Τέχνης ίσως να είναι κάποιο είδος πνευματικής διαφορετικότητας. Αυτό που ο πρωταγωνιστής Μπεν Γκαζάρα αναφέρει ως στυλ στον εναρκτήριο λόγο του. Και δεν υπάρχει αμφιβολία πως εμείς μέσα σε αυτό το αλλόκοτο σύμπαν πλοηγούμαστε στο εσωτερικό (ιδιότυπο) δωμάτιο ενός καλλιτέχνη. Ένα σύμπαν ελαφρώς παρανοϊκό. Ένα δωμάτιο που χορεύει σε μελαγχολικές σκούρες μπλε συχνότητες, με στιγμιαίες παύσεις θερμού κόκκινου. Έναν κόσμο πλημμυρισμένο με αρχέγονα ένστικτα. Όπου η οινοποσία είναι μία πόρτα εξόδου απ` τη λογική. Έναν κόσμο σκοτεινό, συνειδητοποιημένα περιθωριακό, όπου κυριαρχεί η μηδενιστική ποίηση του Τσαρλς Μπουκόφσκι.»

                  Πηγή: cine.gr

[video]https://www.youtube.com/watch?v=wfyah1V0g1g[/video]

BC5JEObh.jpg

https://www.imdb.com/title/tt0086410/

ΤΕΧΝΙΚΑ ΧΑΡΑΚΤΗΡΙΣΤΙΚΑ


General
Complete name               : Storie di ordinaria follia.1981.DVDRip.x264.AC3.mkv
Format                      : Matroska
Format version              : Version 4
File size                   : 1.28 GiB
Duration                    : 1 h 36 min
Overall bit rate            : 1 897 kb/s
Encoded date                : UTC 2018-10-25T05:32:21Z
Writing application         : HandBrake 1.1.2 2018090500
Writing library             : Lavf57.7.2

Video
ID                          : 1
Format                      : AVC
Format/Info                 : Advanced Video Codec
Format profile              : [email protected]
Format settings             : CABAC / 4 Ref Frames
Format settings, CABAC      : Yes
Format settings, ReFrames   : 4 frames
Codec ID                    : V_MPEG4/ISO/AVC
Duration                    : 1 h 36 min
Bit rate                    : 1 700 kb/s
Width                       : 720 pixels
Height                      : 432 pixels
Display aspect ratio        : 5:3
Frame rate mode             : Constant
Frame rate                  : 25.000 FPS
Color space                 : YUV
Chroma subsampling          : 4:2:0
Bit depth                   : 8 bits
Scan type                   : Progressive
Bits/(Pixel*Frame)          : 0.219
Stream size                 : 1.12 GiB (88%)
Writing library             : x264 core 155 r2901 7d0ff22
Encoding settings           : cabac=1 / ref=3 / deblock=1:0:0 / analyse=0x3:0x113 / me=hex / subme=7 / psy=1 / psy_rd=1.00:0.00 / mixed_ref=1 / me_range=16 / chroma_me=1 / trellis=1 / 8x8dct=1 / cqm=0 / deadzone=21,11 / fast_pskip=1 / chroma_qp_offset=-2 / threads=6 / lookahead_threads=1 / sliced_threads=0 / nr=0 / decimate=1 / interlaced=0 / bluray_compat=0 / constrained_intra=0 / bframes=3 / b_pyramid=2 / b_adapt=1 / b_bias=0 / direct=1 / weightb=1 / open_gop=0 / weightp=2 / keyint=250 / keyint_min=25 / scenecut=40 / intra_refresh=0 / rc_lookahead=40 / rc=2pass / mbtree=1 / bitrate=1700 / ratetol=1.0 / qcomp=0.60 / qpmin=0 / qpmax=69 / qpstep=4 / cplxblur=20.0 / qblur=0.5 / vbv_maxrate=62500 / vbv_bufsize=78125 / nal_hrd=none / filler=0 / ip_ratio=1.40 / aq=1:1.00
Default                     : Yes
Forced                      : No
Color range                 : Limited
Color primaries             : BT.601 PAL
Transfer characteristics    : BT.709
Matrix coefficients         : BT.601

Audio
ID                          : 2
Format                      : AC-3
Format/Info                 : Audio Coding 3
Commercial name             : Dolby Digital
Codec ID                    : A_AC3
Duration                    : 1 h 36 min
Bit rate mode               : Constant
Bit rate                    : 192 kb/s
Channel(s)                  : 2 channels
Channel layout              : L R
Sampling rate               : 48.0 kHz
Frame rate                  : 31.250 FPS (1536 SPF)
Bit depth                   : 16 bits
Compression mode            : Lossy
Delay relative to video     : -80 ms
Stream size                 : 133 MiB (10%)
Title                       : Stereo
Language                    : English
Service kind                : Complete Main
Default                     : Yes
Forced                      : No

Text
ID                          : 3
Format                      : VobSub
Codec ID                    : S_VOBSUB
Codec ID/Info               : Picture based subtitle format used on DVDs
Language                    : Greek
Default                     : Yes
Forced                      : Yes


qO4Dexcl.png

Hidden Content
You'll be able to see the hidden content once you reply to this topic.

Share this post


Link to post
Share on other sites
makissir

thanks

Share this post


Link to post
Share on other sites
georgemag66

ευχαριστω

Share this post


Link to post
Share on other sites

Create an account or sign in to comment

You need to be a member in order to leave a comment

Create an account

Sign up for a new account in our community. It's easy!

Register a new account

Sign in

Already have an account? Sign in here.

Sign In Now
Sign in to follow this  

×