Jump to content
Sign in to follow this  
POPIKOSTAS

FRANKLIN 'S MAGIC CHRISTMAS (2002)-ΦΡΑΝΚΛΙΝ - ΜΑΓΙΚΑ ΧΡΙΣΤΟΥΓΕΝΝΑ-DVDRIP

Recommended Posts

POPIKOSTAS

dzQb69Bl.jpg

FRANKLIN 'S MAGIC CHRISTMAS (2002)-ΦΡΑΝΚΛΙΝ - ΜΑΓΙΚΑ ΧΡΙΣΤΟΥΓΕΝΝΑ-DVDRIP

Τα Χριστούγεννα πλησιάζουν! Ο Φράνκλιν, το χελωνάκι, και η οικογένεια του πηγαίνουν στον παππού και στη γιαγιά για να γιορτάσουν όλοι μαζί την πιο όμορφη γιορτή του χρόνου! Οι μέρες περνούν ευχάριστα, μέχρι που μια θύελλα παγώνει τα πάντα στο κτήμα Φάραγουεϊ. Ο παππούς γλιστράει στον πάγο και τώρα... χρειάζεται επειγόντως γιατρό! Δεν υπάρχει όμως κανένας λόγος να ανησυχείτε. Ο Φράνκλιν ξέρει πολύ καλά τι πρέπει να κάνει!
Θα ανέβει στο ξύλινο έλκηθρο, θα χτυπήσει την ασημένια καμπανούλα της γιαγιάς και μαζί με τη Χάριετ, την αδερφούλα του και δύο μαγικούς ταράνδους, θα ζήσει την πιο υπέροχη νύχτα της ζωής του!

2rgAv4Zl.jpg

[video]https://www.youtube.com/watch?v=Alaitl8DYPE[/video]

https://www.imdb.com/title/tt0329098/

General
Complete name                            : ΦΡΑΝΚΛΙΝ - ΜΑΓΙΚΑ ΧΡΙΣΤΟΥΓΕΝΝΑ - ΜΕΤΑΓΛΩΤΙΣΜΕΝΟ - DVDRip x264 - AC3 [cecilaris3].mkv
Format                                   : Matroska
Format version                           : Version 2
File size                                : 1.05 GiB
Duration                                 : 50mn 40s
Overall bit rate                         : 2 954 Kbps
Writing application                      : HandBrake 0.9.8
Writing library                          : libmkv 0.6.5

Video
ID                                       : 1
Format                                   : AVC
Format/Info                              : Advanced Video Codec
Format profile                           : [email protected]
Format settings, CABAC                   : Yes
Format settings, ReFrames                : 4 frames
Codec ID                                 : V_MPEG4/ISO/AVC
Duration                                 : 50mn 40s
Bit rate                                 : 2 500 Kbps
Width                                    : 704 pixels
Height                                   : 528 pixels
Display aspect ratio                     : 4:3
Frame rate                               : 25.000 fps
Color space                              : YUV
Chroma subsampling                       : 4:2:0
Bit depth                                : 8 bits
Scan type                                : Progressive
Bits/(Pixel*Frame)                       : 0.269
Stream size                              : 887 MiB (83%)
Writing library                          : x264 core 120
Encoding settings                        : cabac=1 / ref=3 / deblock=1:0:0 / analyse=0x3:0x113 / me=hex / subme=7 / psy=1 / psy_rd=1.00:0.00 / mixed_ref=1 / me_range=16 / chroma_me=1 / trellis=1 / 8x8dct=1 / cqm=0 / deadzone=21,11 / fast_pskip=1 / chroma_qp_offset=-2 / threads=3 / sliced_threads=0 / nr=0 / decimate=1 / interlaced=0 / bluray_compat=0 / constrained_intra=0 / bframes=3 / b_pyramid=2 / b_adapt=2 / b_bias=0 / direct=1 / weightb=1 / open_gop=0 / weightp=1 / keyint=250 / keyint_min=25 / scenecut=40 / intra_refresh=0 / rc_lookahead=10 / rc=2pass / mbtree=1 / bitrate=2500 / ratetol=1.0 / qcomp=0.60 / qpmin=3 / qpmax=69 / qpstep=4 / cplxblur=20.0 / qblur=0.5 / ip_ratio=1.40 / aq=1:1.00
Language                                 : English
Default                                  : Yes
Forced                                   : No
Color primaries                          : BT.601-6 525, BT.1358 525, BT.1700 NTSC, SMPTE 170M
Transfer characteristics                 : BT.709-5, BT.1361
Matrix coefficients                      : BT.601-6 525, BT.1358 525, BT.1700 NTSC, SMPTE 170M

Audio
ID                                       : 2
Format                                   : AC-3
Format/Info                              : Audio Coding 3
Mode extension                           : CM (complete main)
Codec ID                                 : A_AC3
Duration                                 : 50mn 40s
Bit rate mode                            : Constant
Bit rate                                 : 448 Kbps
Channel(s)                               : 2 channels
Channel positions                        : Front: L R
Sampling rate                            : 48.0 KHz
Bit depth                                : 16 bits
Compression mode                         : Lossy
Stream size                              : 162 MiB (15%)
Language                                 : Greek
Default                                  : Yes
Forced                                   : No


1MFWSWwh.png

Hidden Content
You'll be able to see the hidden content once you reply to this topic.

Share this post


Link to post
Share on other sites

Create an account or sign in to comment

You need to be a member in order to leave a comment

Create an account

Sign up for a new account in our community. It's easy!

Register a new account

Sign in

Already have an account? Sign in here.

Sign In Now
Sign in to follow this  

×