Jump to content
Sign in to follow this  
POPIKOSTAS

CURIOUS GEORGE: A VERY MONKEY CHRISTMAS-Ο ΠΕΡΙΕΡΓΟΣ ΓΙΩΡΓΑΚΗΣ: ΚΑΛΑ ΜΑΙΜΟΥΔΕΝΙΑ ΧΡΙΣΤΟΥΓΕΝΝΑ (2009) DVDRip-ΜΕΤΑΓΛΩΤΤΙΣΜΕΝΟ

Recommended Posts

POPIKOSTAS

QXCk5RLh.jpg

CURIOUS GEORGE: A VERY MONKEY CHRISTMAS-Ο ΠΕΡΙΕΡΓΟΣ ΓΙΩΡΓΑΚΗΣ: ΚΑΛΑ ΜΑΙΜΟΥΔΕΝΙΑ ΧΡΙΣΤΟΥΓΕΝΝΑ (2009) DVDRip-ΜΕΤΑΓΛΩΤΤΙΣΜΕΝΟ

ΠΛΗΡΟΦΟΡΙΕΣ

Directors: Scott Heming, Cathy Malkasian
Writers: Joe Fallon, Margret Rey (books)
Stars: Frank Welker, Jeff Bennett, Rino Romano

ΥΠΟΘΕΣΗ

Ο Γιώργος και ο άνδρας στο κίτρινο καπέλο έχουν έναν ευχάριστο χρόνο που μετράει μέχρι τα Χριστούγεννα. Αλλά δε μπορούν να αποφασίσουν τι να δώσουν ο ένας στον άλλο. Θα βρουν τις απαντήσεις πριν το πρωί των Χριστουγέννων;

Cc4zwdxh.jpg

[video]https://www.youtube.com/watch?v=b85UvCq1e4g[/video]

https://www.imdb.com/title/tt1570964/

ΤΕΧΝΙΚΑ ΧΑΡΑΚΤΗΡΙΣΤΙΚΑ


General
Complete name               : Curious George A Very Monkey Christmas (2009) (METAΓΛΩΤΙΣΜΕΝΟ).avi
Format                      : AVI
Format/Info                 : Audio Video Interleave
File size                   : 724 MiB
Duration                    : 54 min 59 s
Overall bit rate            : 1 840 kb/s
Writing library             : VirtualDub build 29963/release

Video
ID                          : 0
Format                      : MPEG-4 Visual
Format profile              : Advanced [email protected]
Format settings, BVOP       : No
Format settings, QPel       : No
Format settings, GMC        : No warppoints
Format settings, Matrix     : Default (MPEG)
Codec ID                    : XVID
Codec ID/Hint               : XviD
Duration                    : 54 min 59 s
Bit rate                    : 1 511 kb/s
Width                       : 1 024 pixels
Height                      : 576 pixels
Display aspect ratio        : 16:9
Frame rate                  : 25.000 FPS
Color space                 : YUV
Chroma subsampling          : 4:2:0
Bit depth                   : 8 bits
Scan type                   : Progressive
Compression mode            : Lossy
Bits/(Pixel*Frame)          : 0.102
Stream size                 : 594 MiB (82%)
Writing library             : XviD 1.1.2 (UTC 2006-11-01)

Audio
ID                          : 1
Format                      : AC-3
Format/Info                 : Audio Coding 3
Commercial name             : Dolby Digital
Codec ID                    : 2000
Duration                    : 54 min 58 s
Bit rate mode               : Constant
Bit rate                    : 320 kb/s
Channel(s)                  : 2 channels
Channel layout              : L R
Sampling rate               : 44.1 kHz
Frame rate                  : 28.711 FPS (1536 SPF)
Bit depth                   : 16 bits
Compression mode            : Lossy
Stream size                 : 126 MiB (17%)
Alignment                   : Aligned on interleaves
Interleave, duration        : 40  ms (1.00 video frame)
Interleave, preload duratio : 522  ms
Service kind                : Complete Main


1MFWSWwh.png

Hidden Content
You'll be able to see the hidden content once you reply to this topic.

Share this post


Link to post
Share on other sites

Create an account or sign in to comment

You need to be a member in order to leave a comment

Create an account

Sign up for a new account in our community. It's easy!

Register a new account

Sign in

Already have an account? Sign in here.

Sign In Now
Sign in to follow this  

×