Jump to content
Sign in to follow this  
POPIKOSTAS

FELIX THE CAT SAVES CHRISTMAS (2004) DVDRip-ΜΕΤΑΓΛΩΤΤΙΣΜΕΝΟ

Recommended Posts

POPIKOSTAS

bs3trxFh.jpg

FELIX THE CAT SAVES CHRISTMAS (2004) DVDRip-ΜΕΤΑΓΛΩΤΤΙΣΜΕΝΟ

ΠΛΗΡΟΦΟΡΙΕΣ

Director: Don Oriolo
Writers: Don Oriolo, Jay Thompson (additional writing)
Stars: Dave Coulier, Tom Bosley, Don Oriolo

ΥΠΟΘΕΣΗ

Ο Φέλιξ, μαζί με τη μαγική του τσάντα και το φιλαράκι του Ποϊνσι, πρέπει να σταματήσει τον κακό Καθηγητή και τον Ροκ Μπότομ που θέλουν να καταστρέψουν τα Χριστούγεννα!
Ο Καθηγητής σχεδιάζει να χρησιμοποιήσει ένα διαβολικό μηχάνημα παραγωγής χιονιού που έχει επινοήσει, για να δημιουργήσει τη μεγαλύτερη χιονοθύελλα του κόσμου!
Αν το σχέδιό του πραγματοποιηθεί, τα Χριστούγεννα θα ματαιωθούν στα σίγουρα!
Ο Φέλιξ θα χρειαστεί κάθε κόλπο από αυτά που κρύβει η μαγική του τσάντα, αλλά και τη βοήθεια μερικών μάλλον... εκκεντρικών φίλων!
Ο σκανδαλιάρης γάτος ΦΕΛΙΞ, σούπερ-σταρ των κινουμένων σχεδίων, πρωταγωνιστεί σε μία διασκεδαστική και... περιπετειώδη ταινία κινουμένων σχεδίων για όλη την οικογένεια, όπου τα Χριστούγεννα κινδυνεύουν από τα σατανικά σχέδια του κακού Καθηγητή!

F7TUt6Eh.jpg

[video]https://www.youtube.com/watch?v=SGcNvA27Dn0[/video]

https://www.imdb.com/title/tt0439567/

ΤΕΧΝΙΚΑ ΧΑΡΑΚΤΗΡΙΣΤΙΚΑ


General
Complete name               : Felix the Cat Saves Christmas (2004) (METAΓΛΩΤΙΣΜΕΝΟ).mp4
Format                      : MPEG-4
Format profile              : Base Media
Codec ID                    : isom (isom/iso2/avc1/mp41)
File size                   : 448 MiB
Duration                    : 1 h 7 min
Overall bit rate mode       : Variable
Overall bit rate            : 930 kb/s
Encoded date                : UTC 2013-08-25 03:19:37
Tagged date                 : UTC 2013-08-25 03:19:37

Video
ID                          : 1
Format                      : AVC
Format/Info                 : Advanced Video Codec
Format profile              : [email protected]
Format settings             : CABAC / 3 Ref Frames
Format settings, CABAC      : Yes
Format settings, ReFrames   : 3 frames
Codec ID                    : avc1
Codec ID/Info               : Advanced Video Coding
Duration                    : 1 h 7 min
Bit rate                    : 801 kb/s
Width                       : 532 pixels
Height                      : 480 pixels
Display aspect ratio        : 1.108
Frame rate mode             : Constant
Frame rate                  : 29.970 (30000/1001) FPS
Color space                 : YUV
Chroma subsampling          : 4:2:0
Bit depth                   : 8 bits
Scan type                   : Progressive
Bits/(Pixel*Frame)          : 0.105
Stream size                 : 386 MiB (86%)
Encoded date                : UTC 2013-08-25 03:19:37
Tagged date                 : UTC 2013-08-25 03:19:37
Codec configuration box     : avcC

Audio
ID                          : 2
Format                      : AAC LC
Format/Info                 : Advanced Audio Codec Low Complexity
Codec ID                    : mp4a-40-2
Duration                    : 1 h 7 min
Bit rate mode               : Variable
Bit rate                    : 126 kb/s
Channel(s)                  : 2 channels
Channel layout              : L R
Sampling rate               : 44.1 kHz
Frame rate                  : 43.066 FPS (1024 SPF)
Compression mode            : Lossy
Stream size                 : 60.6 MiB (14%)
Default                     : Yes
Alternate group             : 1
Encoded date                : UTC 2013-08-25 03:19:42
Tagged date                 : UTC 2013-08-25 03:19:42


1MFWSWwh.png

Hidden Content
You'll be able to see the hidden content once you reply to this topic.

Share this post


Link to post
Share on other sites

Create an account or sign in to comment

You need to be a member in order to leave a comment

Create an account

Sign up for a new account in our community. It's easy!

Register a new account

Sign in

Already have an account? Sign in here.

Sign In Now
Sign in to follow this  

×