Jump to content
Sign in to follow this  
POPIKOSTAS

ΑΚΤΗ ΠΕΙΡΑΙΩΣ ΝΑ ΔΕΙΣ ΤΙ ΣΟΥ ΧΩ ΓΙΑ ΜΕΤΑ - ΠΑΠΑΚΩΝΣΤΑΝΤΙΝΟΥ ΜΑΧΑΙΡΙΤΣΑΣ ΖΟΥΓΑΝΕΛΗΣ ΣΤΑΡΟΒΑΣ - DTB - x264-GrLTv

Recommended Posts

POPIKOSTAS

aFJsnSRh.jpg

ΑΚΤΗ ΠΕΙΡΑΙΩΣ ΝΑ ΔΕΙΣ ΤΙ ΣΟΥ ΧΩ ΓΙΑ ΜΕΤΑ - ΠΑΠΑΚΩΝΣΤΑΝΤΙΝΟΥ ΜΑΧΑΙΡΙΤΣΑΣ ΖΟΥΓΑΝΕΛΗΣ ΣΤΑΡΟΒΑΣ - DTB - x264-GrLTv

40iKfjeh.jpg

Όταν στη σκηνή συναντιούνται ο Βασίλης Παπακωνσταντίνου, Γιώτα Νέγκα, ο Λαυρέντης Μαχαιρίτσας, ο Δημήτρης Σταρόβας και ο Γιάννης Ζουγανέλης, τα λόγια είναι περιττά.

Αναφερόμαστε σε τέσσερις καλλιτέχνες με πολλά χιλιάδες χιλιόμετρα στο κοντέρ των εμφανίσεών τους, με κληρονομιά τους δίσκους, παραστάσεις που έχουν αφήσει εποχή και που παρόλα αυτά οι ίδιοι αρνούνται να μεγαλώσουν και παραμένουν πεισματικά αισθηματίες.

Φέτος, ο Βασίλης, ο Λαυρέντης, ο Δημήτρης και ο Γιάννης, συναντιούνται ξανά, μετά από δέκα χρόνια, στη σκηνή της «Ακτής Πειραιώς 178». Η αγαπημένη παρέα των τεσσάρων, που το 2008 μας χάρισε αμέτρητες αξέχαστες βραδιές με ατάκες που έγραψαν ιστορία κι ανεβασμένη ροκ διάθεση, επιστρέφει στον τόπο του εγκλήματος με άγριες διαθέσεις! Το μυστικό της επιτυχημένης συνταγής τους: η μακρόχρονη φιλία που τους ενώνει η οποία τους χαρίζει αυτή τη μοναδική οικειότητα κι άνεση στη σκηνή, τα αγαπημένα τραγούδια τους και το χιούμορ τους.

Μαζί τους θα είναι: η Μιρέλα Πάχου με τη ζωντάνια της και φυσικά... το ακορντεόν της, ο Ιταλός ταλαντούχος κιθαρίστας Steve Tesser που συμπράττει με άποψη & καθαρότητα στο μουσικό του λόγο και η Φρόσω Στυλιανού με το πάθος και τις ιδιαίτερες ερμηνείες της.

Το αποτέλεσμα; Μια μεγάλη βραδιά που τα έχει όλα: μπαλάντες, ροκ ενέργεια, χιούμορ, ιστορικά κομμάτια, τραγούδια σταθμούς, αλλά και νέες επιτυχίες κι απρόβλεπτες επιλογές!

Σαν απάντηση σε όσα ζούμε και μας περιμένουν ακόμα, οι τέσσερις μας κλείνουν το μάτι και μας λένε: «Κι αν είμαι ροκ, μη με φοβάσαι» !

Μαζί τους οι μουσικοί:

Πιάνο / keyboards: Ανδρέας Αποστόλου
Ηλεκτρικό Μπάσο: Βαγγέλης Πατεράκης, Άκης Αμπράζης
Τύμπανα: Φίλιππος Σπυρόπουλος, Στέφανος Δημητρίου
Βιολί – τραγούδι: Μαίρη Μπρόζη
Κιθάρες: Γιάννης Αυγέρης
Πλήκτρα: Γιώργος Θεοδωρόπουλος
Πνευστά: Αλέξανδρος Ζουγανέλης

Επιμέλεια ήχου: Αλέξανδρος Μπίτος, Γιώργος Καραγιαννίδης, Λυσιέν Κλίμης
Επιμέλεια φώτων: Γιάννης Δίπλας
Ενορχήστρωση : Ανδρέας Αποστόλου
Επιμέλεια οπτικού υλικού: Πάνος Ζενίδης

Φωτογραφίες: Γιάννης Μαργετουσάκης
Γραφιστική επιμέλεια: Μάνος Σαλούστρος

 

Είδαμε: Στα θετικά της βραδιάς ο αιώνιος έφηβος Βασίλης Παπακωνσταντίνου που πάντα με τις εμφανίσεις του δημιουργεί κάτι μαγικό. Καταφέρνει με τραγούδια παλιά και νέα να ενώνει όλο τον κόσμο, ανεξάρτητα ηλιακής γκάμας. Οι πάντα αισθαντικές αλλά και στιβαρές ερμηνείες του τραγουδοποιού και ερμηνευτή Λαυρέντη Μαχαιρίτσα και η ερμηνεία της Φρόσως Στυλιανού στο Je suis malade της Lara Fabian, που απέσπασε δυνατό χειροκρότημα από τον κόσμο.

musicity.gr

DcfBglAh.jpg

ΤΕΧΝΙΚΑ ΧΑΡΑΚΤΗΡΙΣΤΙΚΑ


General
Complete name               : Ant1.Akth.Peiraiws.Na.Deis.Ti.Soy.Xw.Gia.Meta.Papakwnstantinoy.Maxairitsas.Zoyganelhs.Starovas.DTB.x264-GrLTv.mkv
Format                      : Matroska
Format version              : Version 4
File size                   : 2.63 GiB
Duration                    : 4 h 21 min
Overall bit rate            : 1 438 kb/s
Encoded date                : UTC 2019-01-03T15:17:00Z
Writing application         : HandBrake 1.1.2 2018090500
Writing library             : Lavf57.7.2

Video
ID                          : 1
Format                      : AVC
Format/Info                 : Advanced Video Codec
Format profile              : [email protected]
Format settings             : CABAC / 5 Ref Frames
Format settings, CABAC      : Yes
Format settings, ReFrames   : 5 frames
Codec ID                    : V_MPEG4/ISO/AVC
Duration                    : 4 h 21 min
Bit rate                    : 1 218 kb/s
Width                       : 720 pixels
Height                      : 404 pixels
Display aspect ratio        : 16:9
Frame rate mode             : Constant
Frame rate                  : 25.000 FPS
Color space                 : YUV
Chroma subsampling          : 4:2:0
Bit depth                   : 8 bits
Scan type                   : Progressive
Bits/(Pixel*Frame)          : 0.167
Stream size                 : 2.22 GiB (85%)
Writing library             : x264 core 155 r2901 7d0ff22
Encoding settings           : cabac=1 / ref=5 / deblock=1:0:0 / analyse=0x3:0x113 / me=hex / subme=8 / psy=1 / psy_rd=1.00:0.00 / mixed_ref=1 / me_range=16 / chroma_me=1 / trellis=2 / 8x8dct=1 / cqm=0 / deadzone=21,11 / fast_pskip=1 / chroma_qp_offset=-2 / threads=6 / lookahead_threads=1 / sliced_threads=0 / nr=0 / decimate=1 / interlaced=0 / bluray_compat=0 / constrained_intra=0 / bframes=3 / b_pyramid=2 / b_adapt=1 / b_bias=0 / direct=3 / weightb=1 / open_gop=0 / weightp=2 / keyint=250 / keyint_min=25 / scenecut=40 / intra_refresh=0 / rc_lookahead=50 / rc=crf / mbtree=1 / crf=20.0 / qcomp=0.60 / qpmin=0 / qpmax=69 / qpstep=4 / vbv_maxrate=62500 / vbv_bufsize=78125 / crf_max=0.0 / nal_hrd=none / filler=0 / ip_ratio=1.40 / aq=1:1.00
Default                     : Yes
Forced                      : No
Color range                 : Limited
Color primaries             : BT.601 PAL
Transfer characteristics    : BT.709
Matrix coefficients         : BT.601

Audio
ID                          : 2
Format                      : AC-3
Format/Info                 : Audio Coding 3
Commercial name             : Dolby Digital
Codec ID                    : A_AC3
Duration                    : 4 h 21 min
Bit rate mode               : Constant
Bit rate                    : 192 kb/s
Channel(s)                  : 2 channels
Channel layout              : L R
Sampling rate               : 48.0 kHz
Frame rate                  : 31.250 FPS (1536 SPF)
Bit depth                   : 16 bits
Compression mode            : Lossy
Delay relative to video     : 24 ms
Stream size                 : 359 MiB (13%)
Title                       : Stereo
Language                    : Greek
Service kind                : Complete Main
Default                     : Yes
Forced                      : No


qO4Dexcl.png

Hidden Content
You'll be able to see the hidden content once you reply to this topic.

  • Like 1

Share this post


Link to post
Share on other sites

Create an account or sign in to comment

You need to be a member in order to leave a comment

Create an account

Sign up for a new account in our community. It's easy!

Register a new account

Sign in

Already have an account? Sign in here.

Sign In Now
Sign in to follow this  

×