Jump to content
Sign in to follow this  
loufjohn

μιούζικαλ ΣΤΑ ΤΡΑΓΟΥΔΙΑ ΛΕΜΕ ΝΑΙ ΕΡΤ1 WEBRip AVI ΕΩΣ 40 (06/07/2019)

Recommended Posts

loufjohn

ΣΤΑ ΤΡΑΓΟΥΔΙΑ ΛΕΜΕ ΝΑΙ ΕΡΤ1 WEBRip AVI

lVfNEKQl.jpg

 

IaXZX9E.png

Με την Ναταλία Δραγούμη και τον Μιχάλη Μαρίνο.

Η μουσική εκπομπή της δημόσιας τηλεόρασης «Στα τραγούδια λέμε ΝΑΙ» συνεχίζει και τη νέα τηλεοπτική σεζόν ανανεωμένη, με σκοπό να ενώσει το τραγούδι με τον πολιτισμό
και όσα αφορούν στον σύγχρονο άνθρωπο!

Συνεχίζουμε και λέμε «ΝΑΙ» στα τραγούδια που δίνουν χρώμα, παλμό και χαρακτήρα στη ζωή μας, λέμε «ΝΑΙ» σε όσα έχουν ουσία και λόγο ύπαρξης, λέμε «ΝΑΙ» σε πραγματικούς
καλλιτέχνες, μουσικούς και τραγουδιστές!

 

6KTXyhc.png

VuI9lVml.jpg


sNfCVWD.png

 

General

General
Complete name                  : ΣΤΑ ΤΡΑΓΟΥΔΙΑ ΛΕΜΕ ΝΑΙ\TRAGOYDIA.NAI.EP.01.avi
Format                         : AVI
Format/Info                    : Audio Video Interleave
File size                      : 2.37 GiB
Duration                       : 2 h 34 min
Overall bit rate               : 2 205 kb/s

Video
ID                             : 0
Format                         : AVC
Format/Info                    : Advanced Video Codec
Format profile                 : [email protected]
Format settings                : 1 Ref Frames
Format settings, CABAC         : No
Format settings, ReFrames      : 1 frame
Codec ID                       : H264
Duration                       : 2 h 34 min
Bit rate                       : 2 064 kb/s
Width                          : 864 pixels
Height                         : 480 pixels
Display aspect ratio           : 16:9
Frame rate                     : 25.000 FPS
Color space                    : YUV
Chroma subsampling             : 4:2:0
Bit depth                      : 8 bits
Scan type                      : Progressive
Bits/(Pixel*Frame)             : 0.199
Stream size                    : 2.22 GiB (94%)
Writing library                : x264 core 152 r2854 e9a5903


Audio
ID                             : 1
Format                         : MPEG Audio
Format version                 : Version 1
Format profile                 : Layer 3
Codec ID                       : 55
Codec ID/Hint                  : MP3
Duration                       : 2 h 34 min
Bit rate mode                  : Constant
Bit rate                       : 128 kb/s
Channel(s)                     : 2 channels
Sampling rate                  : 48.0 kHz
Compression mode               : Lossy
Stream size                    : 141 MiB (6%)
Alignment                      : Aligned on interleaves
Interleave, duration           : 24  ms (0.60 video frame)

     
2V9nbDH.png

 

 

 

 

eKydSyt.jpg


zPAQxlN.png

 

A3VtJrt.png

Hidden Content
You'll be able to see the hidden content once you reply to this topic.

 

Edited by loufjohn

Share this post


Link to post
Share on other sites
loufjohn

ΑΝΕΒΗΚΕ ΕΩΣ 22 (28/12/2018)

Share this post


Link to post
Share on other sites
loufjohn

ΑΝΕΒΗΚΕ ΕΩΣ 23 (04/01/2019)

Share this post


Link to post
Share on other sites
loufjohn

ΑΝΕΒΗΚΕ ΕΩΣ 14 (11/01/2019)

Share this post


Link to post
Share on other sites
loufjohn

ΑΝΕΒΗΚΕ ΕΩΣ ΤΟ 25 (18/01/2019)

Share this post


Link to post
Share on other sites
gakism

THANKS A LOT

Share this post


Link to post
Share on other sites
loufjohn

ΑΝΕΒΗΚΕ ΕΩΣ ΤΟ 26 (23/02/2019)

Share this post


Link to post
Share on other sites
loufjohn

ΑΝΕΒΗΚΕ ΕΩΣ 27 (02/03/2019)

Share this post


Link to post
Share on other sites
loufjohn

ΑΝΕΒΗΚΕ ΕΩΣ 28 (09/03/2019)

Share this post


Link to post
Share on other sites
loufjohn

ΑΝΕΒΗΚΕ ΕΩΣ 29 (16/03/2019)

Share this post


Link to post
Share on other sites
loufjohn

ΑΝΕΒΗΚΕ ΕΩΣ 30 (22/03/2019)

Share this post


Link to post
Share on other sites
loufjohn

ΑΝΕΒΗΚΕ ΕΩΣ ΤΟ 31 (30/03/2019)

Share this post


Link to post
Share on other sites
loufjohn

ΑΝΕΒΗΚΕ ΕΩΣ 32 (06/04/2019)

Share this post


Link to post
Share on other sites
mixalis

euxaristo polli

Share this post


Link to post
Share on other sites
loufjohn

ΑΝΕΒΗΚΕ ΕΩΣ 33 (13/04/2019)

Share this post


Link to post
Share on other sites
loufjohn

ΑΝΕΒΗΚΕ ΤΟ ΕΠ.34 (27/04/2019)

Share this post


Link to post
Share on other sites
ginaki72

thanx

Share this post


Link to post
Share on other sites
loufjohn

ανεβηκε εωσ 35 (04/05/2019)

Share this post


Link to post
Share on other sites
loufjohn

ΑΝΕΒΗΚΕ ΕΩΣ 36 (18/05/2019)

Share this post


Link to post
Share on other sites
loufjohn

ΑΝΕΒΗΚΕ ΕΩΣ 37

Share this post


Link to post
Share on other sites
loufjohn

ΑΝΕΒΗΚΕ ΕΩΣ 38 (08/06/2019)

Share this post


Link to post
Share on other sites
loufjohn

ΑΝΕΒΗΚΕ ΕΩΣ 39 (15/06/2019)

Share this post


Link to post
Share on other sites
loufjohn

ανεβηκε εωσ 40 (006/07/2019)

Share this post


Link to post
Share on other sites

Create an account or sign in to comment

You need to be a member in order to leave a comment

Create an account

Sign up for a new account in our community. It's easy!

Register a new account

Sign in

Already have an account? Sign in here.

Sign In Now
Sign in to follow this  

×