Jump to content
Sign in to follow this  
POPIKOSTAS

THE MUPPET CHRISTMAS CAROL (1992) 720p BRRip - ΞΕΧΩΡΙΣΤΟΙ ΥΠΟΤΙΤΛΟΙ

Recommended Posts

POPIKOSTAS

ueYQo0qh.jpg

THE MUPPET CHRISTMAS CAROL (1992) 720p BRRip - ΞΕΧΩΡΙΣΤΟΙ ΥΠΟΤΙΤΛΟΙ

Είδος ταινίας: Comedy | Drama | Family
Σκηνοθεσία: Brian Henson
Σενάριο: Charles Dickens (novel), Jerry Juhl
Ηθοποιοί: Michael Caine, Dave Goelz and Steve Whitmire
Πρεμιέρα (USA): 11 December 1992
Χώρα παραγωγής: USA
Μετάφραση: Άγνωστος

Υπόθεση:

Η ιστορία του τσιγκούνη Σκρουτζ ερμηνευμένη από τους ήρωες του Μάπετ σόου.
Πρωταγωνιστούν οι κούκλες του Jim Henson και ο καταπληκτικός Michael Caine στο ρόλο του Ebenezer Scrooge.

bXnNWxBh.jpg

[video=youtube;euz-682_mjo]https://www.youtube.com/watch?v=euz-682_mjo[/video]

https://www.imdb.com/title/tt0104940/

ΤΕΧΝΙΚΑ ΧΑΡΑΚΤΗΡΙΣΤΙΚΑ


General
Complete name               : The Muppet Christmas Carol 1992 720p BluRay x264 AC3 - Ozlem.mp4
Format                      : Matroska
Format version              : Version 4
File size                   : 711 MiB
Duration                    : 1 h 25 min
Overall bit rate            : 1 156 kb/s
Encoded date                : UTC 2013-12-17 10:51:22
Writing application         : mkvmerge v6.5.0 ('Isn't she lovely') built on Oct 20 2013 12:50:05
Writing library             : libebml v1.3.0 + libmatroska v1.4.1
FileExtension_Invalid       : mkv mk3d mka mks

Video
ID                          : 1
Format                      : AVC
Format/Info                 : Advanced Video Codec
Format profile              : [email protected]
Format settings             : CABAC / 5 Ref Frames
Format settings, CABAC      : Yes
Format settings, ReFrames   : 5 frames
Codec ID                    : V_MPEG4/ISO/AVC
Duration                    : 1 h 25 min
Bit rate                    : 1 059 kb/s
Width                       : 1 280 pixels
Height                      : 688 pixels
Display aspect ratio        : 1.85:1
Frame rate mode             : Constant
Frame rate                  : 23.976 (24000/1001) FPS
Color space                 : YUV
Chroma subsampling          : 4:2:0
Bit depth                   : 8 bits
Scan type                   : Progressive
Bits/(Pixel*Frame)          : 0.050
Stream size                 : 638 MiB (90%)
Title                       : This is an Ozlem Encode !!!
Writing library             : x264 core 138 r2358 9e941d1
Encoding settings           : cabac=1 / ref=5 / deblock=1:-1:-1 / analyse=0x3:0x113 / me=umh / subme=9 / psy=1 / psy_rd=1.00:0.15 / mixed_ref=1 / me_range=24 / chroma_me=1 / trellis=2 / 8x8dct=1 / cqm=0 / deadzone=21,11 / fast_pskip=0 / chroma_qp_offset=-3 / threads=12 / lookahead_threads=1 / sliced_threads=0 / nr=0 / decimate=1 / interlaced=0 / bluray_compat=0 / constrained_intra=0 / bframes=3 / b_pyramid=2 / b_adapt=2 / b_bias=0 / direct=3 / weightb=1 / open_gop=0 / weightp=2 / keyint=240 / keyint_min=23 / scenecut=40 / intra_refresh=0 / rc_lookahead=60 / rc=2pass / mbtree=1 / bitrate=1059 / ratetol=1.0 / qcomp=0.60 / qpmin=0 / qpmax=69 / qpstep=4 / cplxblur=20.0 / qblur=0.5 / vbv_maxrate=31250 / vbv_bufsize=31250 / nal_hrd=none / ip_ratio=1.40 / aq=1:1.00
Default                     : Yes
Forced                      : No
Color range                 : Limited
Color primaries             : BT.709
Matrix coefficients         : BT.709

Audio
ID                          : 2
Format                      : AC-3
Format/Info                 : Audio Coding 3
Commercial name             : Dolby Digital
Codec ID                    : A_AC3
Duration                    : 1 h 25 min
Bit rate mode               : Constant
Bit rate                    : 96.0 kb/s
Channel(s)                  : 2 channels
Channel layout              : L R
Sampling rate               : 44.1 kHz
Frame rate                  : 28.711 FPS (1536 SPF)
Bit depth                   : 16 bits
Compression mode            : Lossy
Stream size                 : 59.0 MiB (8%)
Title                       : English Audio - Ozlem
Language                    : English
Service kind                : Complete Main
Default                     : Yes
Forced                      : No


qO4Dexcl.png

Hidden Content
You'll be able to see the hidden content once you reply to this topic.

Share this post


Link to post
Share on other sites
KyrZim

Thanks

Share this post


Link to post
Share on other sites

Create an account or sign in to comment

You need to be a member in order to leave a comment

Create an account

Sign up for a new account in our community. It's easy!

Register a new account

Sign in

Already have an account? Sign in here.

Sign In Now
Sign in to follow this  

×