Jump to content
Sign in to follow this  
POPIKOSTAS

HE-MAN AND SHE-RA: A CHRISTMAS SPECIAL (1985) VHSRip - ΜΕΤΑΓΛΩΤΤΙΣΜΕΝΟ

Recommended Posts

POPIKOSTAS

Hsa8Vkgh.jpg

HE-MAN AND SHE-RA: A CHRISTMAS SPECIAL (1985) VHSRip - ΜΕΤΑΓΛΩΤΤΙΣΜΕΝΟ

NHwLmzBh.jpg

Είδος Ταινίας: Κινούμενα Σχέδια, Δράση, Περιπέτεια
Σκηνοθέτης: Μπιλ Ριντ, Έρνι Σμιτ
Σεναριογράφος: Ντον Χίκμαν, Μπομπ Φόρουαντ
Γλώσσα: Ελληνικά

Υπόθεση :  Μια Χριστουγεννιάτικη ταινία, βασισμένη στις τηλεοπτικές σειρές κινουμένων σχεδίων:

Χ-Μαν και οι Κυρί αρχοι του Σύμπαντος & Η Σίρα και οι Πριγκίπισσες των Μαχητών.


Ο Χ-Μαν και η Σίρα ενώνουν τις δυνάμεις τους για να σταματήσουν έναν κακό που προσπαθεί να καταστρέψει τα Χριστούγεννα.

iLT9eF0h.jpg

[video]https://www.youtube.com/watch?v=Bonti5yj-Mg[/video]

https://www.imdb.com/title/tt0276016/

ΤΕΧΝΙΚΑ ΧΑΡΑΚΤΗΡΙΣΤΙΚΑ


General
Complete name               : He-Man and She-Ra A Christmas Special (TV Movie 1985).avi
Format                      : AVI
Format/Info                 : Audio Video Interleave
Format profile              : OpenDML
File size                   : 1.33 GiB
Duration                    : 1 h 26 min
Overall bit rate            : 2 211 kb/s
Writing application         : Lavf52.84.0

Video
ID                          : 0
Format                      : MPEG-4 Visual
Codec ID                    : FMP4
Duration                    : 1 h 26 min
Bit rate                    : 2 067 kb/s
Width                       : 720 pixels
Height                      : 576 pixels
Display aspect ratio        : 5:4
Frame rate                  : 25.000 FPS
Standard                    : PAL
Color space                 : YUV
Chroma subsampling          : 4:2:0
Scan type                   : Progressive
Compression mode            : Lossy
Bits/(Pixel*Frame)          : 0.199
Stream size                 : 1.24 GiB (94%)

Audio
ID                          : 1
Format                      : MPEG Audio
Format version              : Version 1
Format profile              : Layer 3
Format settings             : Joint stereo / MS Stereo
Codec ID                    : 55
Codec ID/Hint               : MP3
Duration                    : 1 h 26 min
Bit rate mode               : Constant
Bit rate                    : 128 kb/s
Channel(s)                  : 2 channels
Sampling rate               : 48.0 kHz
Compression mode            : Lossy
Stream size                 : 78.9 MiB (6%)
Alignment                   : Aligned on interleaves
Interleave, duration        : 24  ms (0.60 video frame)
Interleave, preload duratio : 24  ms
Writing library             : LAME3.98qè…Y‚Çq˜aÉð


qO4Dexcl.png

Hidden Content
You'll be able to see the hidden content once you reply to this topic.

Share this post


Link to post
Share on other sites

Create an account or sign in to comment

You need to be a member in order to leave a comment

Create an account

Sign up for a new account in our community. It's easy!

Register a new account

Sign in

Already have an account? Sign in here.

Sign In Now
Sign in to follow this  

×