Jump to content
Sign in to follow this  
POPIKOSTAS

THE POLAR EXPRESS (2004) 720p BRRip XviD - ΜΕΤΑΓΛΩΤΤΙΣΜΕΝΟ

Recommended Posts

POPIKOSTAS

ShpGlzSh.jpg

THE POLAR EXPRESS (2004) BRRip - ΜΕΤΑΓΛΩΤΤΙΣΜΕΝΟ

Τίτλος ταινίας: THE POLAR EXPRESS.
Ελληνικός Τίτλος: ΤΟ ΠΟΛΙΚΟ ΕΞΠΡΕΣ.
Έτος παραγωγής: 2004 (Ελλάδα ΔΕΚ 2004).
Είδος ταινίας: Κινούμενα Σχέδια, Παιδικά.
Στούντιο Παραγωγής: Warner Bros.
Γλώσσα ομιλίας: Ελληνικά (Μεταγλωτισμένο).
Διάρκεια ταινίας: 1 ώρα 35 λεπτά.
Σκηνοθεσία: Robert Zemeckis.
Ηθοποιοί (Voices): Tom Hanks (Hero Boy / Father / Conductor / Hobo / Scrooge / Santa Claus ), Leslie Zemeckis (Sister Sarah / Mother), Eddie Deezen (Know-It-All), Nona Gaye (Hero Girl), Peter Scolari (Lonely Boy), Michael Jeter (Smokey / Steamer).

ΥπόθεΣη:
Η παράδοση θέλει τα παιδιά να πιστεύουν τον Αγιο Βασίλη. Στην πραγματικότητα όμως, υπάρχουν και μπόμπιρες που έχουν σταματήσει να περιμένουν την επίσκεψη του Αγιου τις γιορτές, ειδικά όταν όλοι τους οι φίλοι και οι συγγενείς δεν πιστεύουν στον Αγιο. Ένα από αυτά τα παιδιά είναι και ο μικρός ήρωας του Polar Express (του οποίου το όνομα ποτέ δεν μαθαίνουμε). Η ιστορία ξεκινά μια νύχτα Χριστουγέννων όταν ένας παράξενος ήχος και μια λάμψη τον ξυπνούν. Πάνω στο χιόνι στο δρόμο έξω από το σπίτι του βρίσκεται σταματημένο ένα επιβλητικό τρένο. Ο ήρωάς μας βγαίνει στο δρόμο σπρωγμένος από την περιέργειά του. Ο μηχανοδηγός τον προσκαλεί να ανέβει στο τρένο ώστε μαζί με τα υπόλοιπα παιδιά-επιβάτες να ξεκινήσουν για ένα ταξίδι στο Βόρειο Πόλο, όπου θα γνωρίσουν τον Αγιο Βασίλη.

To Polar Express είναι βασισμένο στο ομότιτλο βιβλίο του Chris Van Allsburg, που είναι ιδιαίτερα δημοφιλές στην Αμερική έχοντας μεγαλώσει πολλές γενιές παιδιών. Ο δηλωμένος fan του βιβλίου Robert Zemeckis είχε εδώ και χρόνια στο μυαλό του να μεταφέρει στη μεγάλη οθόνη. Ανέλαβε λοιπόν τη συγγραφή του σεναρίου, διασκευάζοντας το βιβλίο, και έκατσε στην καρέκλα του σκηνοθέτη. Σύμμαχό του σε αυτή την προσπάθεια βρήκε τον Tom Hanks, με τον οποίο είχαν συνεργαστεί επιτυχώς στα Forrest Gump και Castaway.

Για να μείνει κοντά στο ύφος του βιβλίου και της εικονογράφησής του, ο Zemeckis επέλεξε να μην χρησιμοποιήσει ζωντανούς ηθοποιούς. Κατέφυγε λοιπόν σε μια προχωρημένη τεχνική animation, όπου οι εικόνες σχεδιάζονται με βάση την κίνηση πραγματικών ηθοποιών (ο Hanks «υποδύεται» τους περισσότερους βασικούς ρόλους). Το αποτέλεσμα δικαιώνει αυτή την πρωτοποριακή επιλογή, αφού υπάρχουν σκηνές που δεν θα μπορούσαν να είχαν αποδοθεί εξίσου όμορφα με συμβατικούς τρόπους. Μπορεί το Ελληνικό κοινό να μην είναι οικείο με την ιστορία του Polar Express, όμως είναι σίγουρο πως αν αφεθούμε στην μαγεία των εικόνων σίγουρα θα μπούμε για τα καλά στο πνεύμα των Χριστουγέννων. Ακόμα και όσοι δεν πιστεύουμε πια στον Αγιο Βασίλη.

p7A14Dah.jpg

[video=youtube;TQhRqtt-Fpo]https://www.youtube.com/watch?v=TQhRqtt-Fpo[/video]

http://www.imdb.com/title/tt0338348/

ΤΕΧΝΙΚΑ ΧΑΡΑΚΤΗΡΙΣΤΙΚΑ


General
Complete name               : The Polar Express (2004) BRRip XviD 720p.avi
Format                      : AVI
Format/Info                 : Audio Video Interleave
Format profile              : OpenDML
File size                   : 2.07 GiB
Duration                    : 1 h 39 min
Overall bit rate            : 2 961 kb/s
Writing application         : MEncoder SVN-r33883(20110719-gcc4.5.2)
Writing library             : MPlayer

Video
ID                          : 0
Format                      : MPEG-4 Visual
Format profile              : Advanced [email protected]
Format settings             : BVOP2
Format settings, BVOP       : 2
Format settings, QPel       : No
Format settings, GMC        : No warppoints
Format settings, Matrix     : Default (H.263)
Codec ID                    : XVID
Codec ID/Hint               : XviD
Duration                    : 1 h 39 min
Bit rate                    : 2 821 kb/s
Width                       : 1 280 pixels
Height                      : 528 pixels
Display aspect ratio        : 2.40:1
Frame rate                  : 24.000 FPS
Color space                 : YUV
Chroma subsampling          : 4:2:0
Bit depth                   : 8 bits
Scan type                   : Progressive
Compression mode            : Lossy
Bits/(Pixel*Frame)          : 0.174
Stream size                 : 1.97 GiB (95%)
Writing library             : XviD 1.2.1 (UTC 2008-12-04)

Audio
ID                          : 1
Format                      : MPEG Audio
Format version              : Version 1
Format profile              : Layer 3
Format settings             : Joint stereo / MS Stereo
Mode                        : Joint stereo
Mode extension              : MS Stereo
Codec ID                    : 55
Codec ID/Hint               : MP3
Duration                    : 1 h 39 min
Bit rate mode               : Constant
Bit rate                    : 128 kb/s
Channel(s)                  : 2 channels
Sampling rate               : 44.1 kHz
Compression mode            : Lossy
Delay relative to video     : 42 ms
Stream size                 : 91.5 MiB (4%)
Alignment                   : Aligned on interleaves
Interleave, duration        : 26  ms (0.63 video frame)
Interleave, preload duratio : 522  ms
Writing library             : LAME3.98.4


qO4Dexcl.png

Hidden Content
You'll be able to see the hidden content once you reply to this topic.

Share this post


Link to post
Share on other sites

Create an account or sign in to comment

You need to be a member in order to leave a comment

Create an account

Sign up for a new account in our community. It's easy!

Register a new account

Sign in

Already have an account? Sign in here.

Sign In Now
Sign in to follow this  

×