Jump to content
Sign in to follow this  
POPIKOSTAS

κωμωδία ΠΕΤΑ ΤΗ ΦΡΙΤΕΖΑ (2018 - ) ΑΝΤ1 - ΣΥΝΕΧΗΣ ΑΝΑΝΕΩΣΗ ΩΣ 62

Recommended Posts

POPIKOSTAS

sDn4tGvh.jpg

ΠΕΤΑ ΤΗ ΦΡΙΤΕΖΑ (2018 - ) ΑΝΤ1 - ΣΥΝΕΧΗΣ ΑΝΑΝΕΩΣΗ

Ένας διάσημος σεφ με τις συνταγές του να υπακούουν ευλαβικά στις επιταγές της υψηλής γαστρονομίας και όχι στην παράδοση, και ένας ταπεινός ιδιοκτήτης ταβέρνας που ορκίζεται στη δύναμη της… φριτέζας.

Δύο διαφορετικοί κόσμοι, δύο διαφορετικοί μάγειρες με το ίδιο, όμως, μεράκι για το φαγητό και τις γεύσεις ετοιμάζονται να σερβίρουν την πιο νόστιμη συνταγή, εκείνη της ευτυχίας!


Η ΙΣΤΟΡΙΑ

O ελληνικής καταγωγής Κίμωνας Ορλώφ (Φάνης Μουρατίδης) είναι ένας διεθνούς φήμης σεφ, βραβευμένος με πολλά αστέρια Michelin. Αυστηρός, υπερόπτης και χωρίς φίλους έχει επιλέξει τη μοναχική ζωή. Ξαφνικά, θα ανακαλύψει ότι πραγματικός του πατέρας δεν είναι ο άνδρας που τον μεγάλωσε αλλά, ο ιδιοκτήτης της ταβέρνας, «Η Λαγουδέρα», η οποία βρίσκεται σε ένα γραφικό παραθαλάσσιο χωριό, το Φτασμένο.

Ο Ανδρέας Μπασκιάς (Γιάννης Μπέζος) ο ξεροκέφαλος αλλά καλόψυχος ιδιοκτήτης της «Λαγουδέρας» αντιμετωπίζει σοβαρά οικονομικά προβλήματα και η ταβέρνα του κινδυνεύει να κλείσει. Τότε, εμφανίζεται ο Κίμωνας που θα του προτείνει να εξαγοράσει την ταβέρνα του αλλά δεν του αποκαλύπτει πως είναι γιος του.

Οι δυο τους θα πρέπει να συνεργαστούν αν ο Ανδρέας θέλει να σώσει την επιχείρησή του. Οι συγκρούσεις τους θα είναι μεγάλες και κάθε επεισόδιο συναρπαστικά απολαυστικό!

Άλλωστε ποιος είπε ότι είναι εύκολη η προσαρμογή από τα sous vide στις φριτέζες και τις γάστρες;

Η σειρά «Πέτα τη Φριτέζα», βασισμένη στο τηλεοπτικό σίριαλ «El Chiringuito de Pepe», που έκανε θραύση στην Ισπανία, έρχεται στην Ελλάδα με σπαρταριστούς διαλόγους και ένα δυναμικό καστ καταξιωμένων και νέων ηθοποιών.


Σκηνοθεσία: Ανδρέας Μορφονιός
Σενάριο:  Γιώργος Κρητικός – Μάκης Πιτταράς
Εκτέλεση παραγωγής: J.K Productions

Πρωταγωνιστούν: Γιάννης Μπέζος, Φάνης Μουρατίδης, Γεράσιμος Σκιαδαρέσης, Τζένη Μπότση, Ελένη Ουζουνίδου, Νικολέτα Κοτσαηλίδου, Πηνελόπη Πλάκα, Ηλίας Μουλάς, Λεωνίδας Μαράκης, Παύλος Πιέρρος, Στέφανος Μουαγκιέ, Κυριάκος Σαλής, Νεφέλη Κουλούρη

[video=youtube;IkwCza68umI]https://www.youtube.com/watch?v=IkwCza68umI[/video]

NgKsrVqh.jpg

ΤΕΧΝΙΚΑ ΧΑΡΑΚΤΗΡΙΣΤΙΚΑ


General
Complete name               : Peta.ti.Friteza.S01E01.DTB.x264-GrLTv.mkv
Format                      : Matroska
Format version              : Version 4 / Version 2
File size                   : 393 MiB
Duration                    : 44 min 35 s
Overall bit rate mode       : Variable
Overall bit rate            : 1 231 kb/s
Encoded date                : UTC 2018-09-24 21:50:36
Writing application         : TMPGEnc Video Mastering Works 6 Version. 6.2.9.36
Writing library             : TMPGEnc Video Mastering Works 6 Version. 6.2.9.36

Video
ID                          : 2
Format                      : AVC
Format/Info                 : Advanced Video Codec
Format profile              : [email protected]
Format settings             : CABAC / 4 Ref Frames
Format settings, CABAC      : Yes
Format settings, RefFrames  : 4 frames
Codec ID                    : V_MPEG4/ISO/AVC
Duration                    : 44 min 35 s
Bit rate mode               : Variable
Bit rate                    : 1 014 kb/s
Maximum bit rate            : 2 000 kb/s
Width                       : 720 pixels
Height                      : 404 pixels
Display aspect ratio        : 16:9
Frame rate mode             : Constant
Frame rate                  : 25.000 FPS
Standard                    : NTSC
Color space                 : YUV
Chroma subsampling          : 4:2:0
Bit depth                   : 8 bits
Scan type                   : Progressive
Bits/(Pixel*Frame)          : 0.139
Stream size                 : 324 MiB (82%)
Writing library             : x264 core 148
Encoding settings           : cabac=1 / ref=4 / deblock=1:0:0 / analyse=0x3:0x113 / me=hex / subme=4 / psy=1 / psy_rd=1.00:0.00 / mixed_ref=0 / me_range=16 / chroma_me=1 / trellis=1 / 8x8dct=1 / cqm=1 / deadzone=21,11 / fast_pskip=1 / chroma_qp_offset=0 / threads=12 / lookahead_threads=3 / sliced_threads=0 / slices=1 / nr=0 / decimate=1 / interlaced=0 / minigop=0 / stitchable=1 / constrained_intra=0 / bframes=3 / b_pyramid=0 / b_adapt=1 / b_bias=0 / direct=1 / weightb=1 / open_gop=0 / weightp=1 / keyint=250 / keyint_min=25 / scenecut=40 / intra_refresh=0 / rc_lookahead=20 / rc=crf / mbtree=1 / crf=20.0 / qcomp=0.60 / qpmin=1 / qpmax=69 / qpstep=4 / vbv_maxrate=2000 / vbv_bufsize=2000 / crf_max=51.0 / nal_hrd=vbr / filler=0 / ip_ratio=1.40 / aq=1:1.00
Default                     : Yes
Forced                      : No
Color range                 : Limited
Color primaries             : BT.601 NTSC
Transfer characteristics    : BT.601
Matrix coefficients         : BT.601

Audio
ID                          : 1
Format                      : AC-3
Format/Info                 : Audio Coding 3
Format settings, Endianness : Big
Codec ID                    : A_AC3
Duration                    : 44 min 35 s
Bit rate mode               : Constant
Bit rate                    : 192 kb/s
Channel(s)                  : 2 channels
Channel positions           : Front: L R
Sampling rate               : 48.0 kHz
Frame rate                  : 31.250 FPS (1536 SPF)
Bit depth                   : 16 bits
Compression mode            : Lossy
Stream size                 : 61.2 MiB (16%)
Service kind                : Complete Main
Default                     : Yes
Forced                      : No


qO4Dexcl.png

Hidden Content
You'll be able to see the hidden content once you reply to this topic.

Edited by POPIKOSTAS
  • Like 1
  • Haha 1

Share this post


Link to post
Share on other sites
POPIKOSTAS

Προστέθηκε το 22.

Share this post


Link to post
Share on other sites
POPIKOSTAS

Προστέθηκε το 24.

Share this post


Link to post
Share on other sites
POPIKOSTAS

Προστέθηκε το 25.

Share this post


Link to post
Share on other sites
POPIKOSTAS

Προστέθηκε το 26.

Share this post


Link to post
Share on other sites
asterakia

ευχαριστω

Share this post


Link to post
Share on other sites
POPIKOSTAS

Προστέθηκε το 27.

Share this post


Link to post
Share on other sites
POPIKOSTAS

Προστέθηκε το 28.

Share this post


Link to post
Share on other sites
volvonikolaos

THANKS

Share this post


Link to post
Share on other sites
POPIKOSTAS

Προστέθηκε το 29.

Share this post


Link to post
Share on other sites
POPIKOSTAS

Προστέθηκε το 30.

Share this post


Link to post
Share on other sites
POPIKOSTAS

Προστέθηκε το 31.

Share this post


Link to post
Share on other sites
POPIKOSTAS

Προστέθηκε το 32.

Share this post


Link to post
Share on other sites
POPIKOSTAS

Προστέθηκε το 33.

Share this post


Link to post
Share on other sites
POPIKOSTAS

Προστέθηκε το 34.

Share this post


Link to post
Share on other sites
camiondoctor

thankssss

Share this post


Link to post
Share on other sites
POPIKOSTAS

Προστέθηκε το 35.

Share this post


Link to post
Share on other sites
POPIKOSTAS

Προστέθηκε το 36.

Share this post


Link to post
Share on other sites
POPIKOSTAS

Προστέθηκε το 37.

Share this post


Link to post
Share on other sites
POPIKOSTAS

Προστέθηκε το 38.

Share this post


Link to post
Share on other sites
POPIKOSTAS

Προστέθηκε το 39.

Share this post


Link to post
Share on other sites
POPIKOSTAS

Προστέθηκε το 40.

Share this post


Link to post
Share on other sites
POPIKOSTAS

Προστέθηκε το 41.

Share this post


Link to post
Share on other sites
camiondoctor

thankssss

Share this post


Link to post
Share on other sites
POPIKOSTAS

Προστέθηκε το 42.

Share this post


Link to post
Share on other sites

Create an account or sign in to comment

You need to be a member in order to leave a comment

Create an account

Sign up for a new account in our community. It's easy!

Register a new account

Sign in

Already have an account? Sign in here.

Sign In Now
Sign in to follow this  

×