Jump to content
Sign in to follow this  
POPIKOSTAS

κοινωνικό ΤΟ ΤΥΦΛΟ ΣΗΜΕΙΟ - ΘΕΑΤΡΟ ΠΟΡΕΙΑ (2008) 1080p WEB-DL x264-GrLTv

Recommended Posts

POPIKOSTAS

BHHZa5Bh.jpg

ΤΟ ΤΥΦΛΟ ΣΗΜΕΙΟ - ΘΕΑΤΡΟ ΠΟΡΕΙΑ (2008) 1080p WEB-DL x264-GrLTv

ΠΛΗΡΟΦΟΡΙΕΣ

Δράμα του Γιάννη Μαυριτσάκη
Σκηνοθεσία: Μ. Φριντζήλα
Παίζουν: Π. Ακλίδη, Γ. Αναστασάκης, Τ. Παπαδοπούλου, Δ. Ελευθεριάδης, Απ. Πελεκάνος, Δ. Τάρλοου, Γ. Χατζηπασχάλη

ΥΠΟΘΕΣΗ

Σ' αυτό το σπονδυλωτό έργο μια νέα γυναίκα, η Νίκη, εξαιτίας του θανάτου του άντρα της και βιώνοντας ένα αφόρητο πένθος, μπλέκεται σε ένα εφιαλτικό γαϊτανάκι με πρωταγωνιστές ακραία πεζούς και πεζά ακραίους ανθρώπους. Για "Το Τυφλό Σημείο" ο Γιάννης Μαυριτσάκης τιμήθηκε με το βραβείο ελληνικού έργου "Κάρολος Κουν 2008".

Απώλεια, μοναξιά και βία, πολλή βία. Ένα νέο έργο που «δαγκώνει» τη σημερινή Ελλάδα των προσωπικών και συλλογικών αδιεξόδων και μια παράσταση-δοκιμασία, ποτισμένη όμως από ένα λυρισμό που την καθαγιάζει.

Η ισχυρή και καθαρή σκηνοθεσία της Μάρθας Φριντζήλα είχε ως στόχο, ευστόχως, τον προβληματισμό επί των θεμάτων και όχι την ταύτιση.

Σε ένα σχεδόν «ηλεκτρονικής μουσικής ρυθμό» δημιούργησε με τους ηθοποιούς της ένα απόλυτα εναρμονισμένο σύνολο που ήλεγχε τα μέσα και της δυνατότητές του, αποφεύγοντας κάθε παγίδα ξέφρενου μελοδραματισμού και πρόκλησης οίκτου του θεατή.


Ειρήνη Μουντράκη

GWffEsNh.jpg

[video]https://www.youtube.com/watch?v=Y-L7oPfhs9M[/video]

ΤΕΧΝΙΚΑ ΧΑΡΑΚΤΗΡΙΣΤΙΚΑ


General
Complete name               : To.Tyflo.Simeio.2008.1080p.WEB-DL.x264-GrLTv.mkv
Format                      : Matroska
Format version              : Version 4
File size                   : 3.32 GiB
Duration                    : 1 h 50 min
Overall bit rate            : 4 296 kb/s
Writing application         : VideoReDo (Lavf57.71.100)
Writing library             : VideoReDo (Lavf57.71.100)
ErrorDetectionType          : Per level 1

Video
ID                          : 1
Format                      : AVC
Format/Info                 : Advanced Video Codec
Format profile              : [email protected]
Format settings             : CABAC / 4 Ref Frames
Format settings, CABAC      : Yes
Format settings, Reference  : 4 frames
Codec ID                    : V_MPEG4/ISO/AVC
Duration                    : 1 h 50 min
Bit rate                    : 4 019 kb/s
Width                       : 1 440 pixels
Height                      : 1 080 pixels
Display aspect ratio        : 4:3
Frame rate mode             : Constant
Frame rate                  : 25.000 FPS
Color space                 : YUV
Chroma subsampling          : 4:2:0
Bit depth                   : 8 bits
Scan type                   : Progressive
Bits/(Pixel*Frame)          : 0.103
Stream size                 : 3.10 GiB (94%)
Default                     : No
Forced                      : No

Audio
ID                          : 2
Format                      : AC-3
Format/Info                 : Audio Coding 3
Commercial name             : Dolby Digital
Codec ID                    : A_AC3
Duration                    : 1 h 50 min
Bit rate mode               : Constant
Bit rate                    : 192 kb/s
Channel(s)                  : 2 channels
Channel layout              : L R
Sampling rate               : 48.0 kHz
Frame rate                  : 31.250 FPS (1536 SPF)
Compression mode            : Lossy
Stream size                 : 152 MiB (4%)
Service kind                : Complete Main
Default                     : Yes
Forced                      : No


qO4Dexcl.png

Hidden Content
You'll be able to see the hidden content once you reply to this topic.

Share this post


Link to post
Share on other sites

Create an account or sign in to comment

You need to be a member in order to leave a comment

Create an account

Sign up for a new account in our community. It's easy!

Register a new account

Sign in

Already have an account? Sign in here.

Sign In Now
Sign in to follow this  

×