Jump to content
Sign in to follow this  
POPIKOSTAS

ΣΤΟ ΣΠΙΤΙ ΜΕ ΤΟΝ ΤΟΝΙ ΣΦΗΝΟ (2020) DTB - x264-GrLTv

Recommended Posts

POPIKOSTAS

0chRUMkh.jpg

ΣΤΟ ΣΠΙΤΙ ΜΕ ΤΟΝ ΤΟΝΙ ΣΦΗΝΟ (2020) DTB - x264-GrLTv

AAE1KlPh.jpg

Το απόλυτο καλοκαιρινό πάρτι της σεζόν είναι «ΣΤΟ ΣΠΙΤΙ ΜΕ ΤΟΝ ΤΟΝΙ ΣΦΗΝΟ» και στο MEGA, την Παρασκευή 19 Ιουνίου στις 11 το βράδυ.

Ετοιμαστείτε για τρελό ξεφάντωμα με μουσική, τραγούδι και χορό. Τα αξεπέραστα κομμάτια των τελευταίων δεκαετιών, από το ’70 μέχρι σήμερα, που έχουν συνδεθεί με τις πιο ανέμελες στιγμές μας θα τραγουδήσουν οι αυθεντικοί του είδους. Ο Δάκης, η Μαντώ, ο Κώστας Μπίγαλης, η Πωλίνα, ο Κώστας Χαριτοδιπλωμένος και ο Λάμπης Λιβιεράτος. Οικοδεσπότης ο Τόνι Σφήνος που ξέρει να οργανώνει τα καλύτερα και πιο τρελά disco γλέντια για ατελείωτο χορό και διασκέδαση.

Την Παρασκευή το βράδυ στις 11, στο MEGA θα πιούμε… «Τσάι με λεμόνι», θα ετοιμαστούμε για… «Αυτό το καλοκαίρι», θα ονειρευτούμε τρέλες στις …«Σεϋχέλλες», θα βάλουμε πρόγραμμα για… «Βραδινό μπανάκι» και θα πέσουμε… «Μπάμ και κάτω» από το χορό.

Μια διαφορετική μουσική βραδιά με «γκουντ ολντ φάσιον εντερτέημεντ» όπως θα έλεγε σε … άψογα αγγλικά και ο Τόνι Σφήνος.

ΣΤΟ ΣΠΙΤΙ ΜΕ ΤΟΝ ΤΟΝΙ ΣΦΗΝΟ
Παρασκευή 19 Ιουνίου στις 11 το βράδυ, στο MEGA

biU3DCAh.jpg

[video]https://www.youtube.com/watch?v=hLONum2JH2k&feature=emb_logo[/video]

ΤΕΧΝΙΚΑ ΧΑΡΑΚΤΗΡΙΣΤΙΚΑ


General
Complete name               : Sto.spiti.me.ton.Toni.Sfino.DTB.x264.GrLTv.mkv
Format                      : Matroska
Format version              : Version 2
File size                   : 2.66 GiB
Duration                    : 1 h 54 min
Overall bit rate            : 3 326 kb/s
Encoded date                : UTC 2020-06-20T03:56:01Z
Writing application         : HandBrake 0.10.5 2016021100
Writing library             : Lavf55.12.0

Video
ID                          : 1
Format                      : AVC
Format/Info                 : Advanced Video Codec
Format profile              : [email protected]
Format settings             : CABAC / 4 Ref Frames
Format settings, CABAC      : Yes
Format settings, Reference  : 4 frames
Codec ID                    : V_MPEG4/ISO/AVC
Duration                    : 1 h 54 min
Bit rate                    : 3 068 kb/s
Width                       : 720 pixels
Height                      : 404 pixels
Display aspect ratio        : 16:9
Frame rate mode             : Constant
Frame rate                  : 25.000 FPS
Color space                 : YUV
Chroma subsampling          : 4:2:0
Bit depth                   : 8 bits
Scan type                   : Progressive
Bits/(Pixel*Frame)          : 0.422
Stream size                 : 2.45 GiB (92%)
Writing library             : x264 core 142 r2479 dd79a61
Encoding settings           : cabac=1 / ref=3 / deblock=1:0:0 / analyse=0x1:0x111 / me=hex / subme=7 / psy=1 / psy_rd=1.00:0.00 / mixed_ref=1 / me_range=16 / chroma_me=1 / trellis=1 / 8x8dct=0 / cqm=0 / deadzone=21,11 / fast_pskip=1 / chroma_qp_offset=-2 / threads=6 / lookahead_threads=1 / sliced_threads=0 / nr=0 / decimate=1 / interlaced=0 / bluray_compat=0 / constrained_intra=0 / bframes=3 / b_pyramid=2 / b_adapt=1 / b_bias=0 / direct=1 / weightb=1 / open_gop=0 / weightp=2 / keyint=250 / keyint_min=25 / scenecut=40 / intra_refresh=0 / rc_lookahead=40 / rc=crf / mbtree=1 / crf=20.0 / qcomp=0.60 / qpmin=0 / qpmax=69 / qpstep=4 / vbv_maxrate=14000 / vbv_bufsize=14000 / crf_max=0.0 / nal_hrd=none / filler=0 / ip_ratio=1.40 / aq=1:1.00
Default                     : Yes
Forced                      : No
Color range                 : Limited
Color primaries             : BT.601 PAL
Transfer characteristics    : BT.709
Matrix coefficients         : BT.601
Duration_Source             : General_Duration

Audio
ID                          : 2
Format                      : AC-3
Format/Info                 : Audio Coding 3
Commercial name             : Dolby Digital
Codec ID                    : A_AC3
Duration                    : 1 h 54 min
Bit rate mode               : Constant
Bit rate                    : 192 kb/s
Channel(s)                  : 2 channels
Channel layout              : L R
Sampling rate               : 48.0 kHz
Frame rate                  : 31.250 FPS (1536 SPF)
Compression mode            : Lossy
Delay relative to video     : -5 ms
Stream size                 : 157 MiB (6%)
Title                       : Stereo
Language                    : Greek
Service kind                : Complete Main
Default                     : Yes
Forced                      : No
Duration_Source             : General_Duration


qO4Dexcl.png

Hidden Content
You'll be able to see the hidden content once you reply to this topic.

Share this post


Link to post
Share on other sites
djandronic

thanks

Share this post


Link to post
Share on other sites
tzosis

Quote

Share this post


Link to post
Share on other sites
kritikos24

thanksss

Share this post


Link to post
Share on other sites
thrillos77

tertretre

Share this post


Link to post
Share on other sites
Kokko12

😐

Share this post


Link to post
Share on other sites

Create an account or sign in to comment

You need to be a member in order to leave a comment

Create an account

Sign up for a new account in our community. It's easy!

Register a new account

Sign in

Already have an account? Sign in here.

Sign In Now
Sign in to follow this  

×