Jump to content
Sign in to follow this  
POPIKOSTAS

βιογραφία ΚΑΖΑΝΤΖΑΚΗΣ (2017) OWN DVDRip

Recommended Posts

POPIKOSTAS

5Qnts4Ph.jpg

ΚΑΖΑΝΤΖΑΚΗΣ (2017)  OWN DVDRip

ΠΛΗΡΟΦΟΡΙΕΣ

Είδος Ταινίας: Biography
Πρεμιέρα στην Ελλάδα: Πεμ 23 Νοε 2017
Σκηνοθέτης: Yannis Smaragdis
Σενάριο: Yannis Smaragdis
Ηθοποιοί: Odysseas Papaspiliopoulos, Marina Kalogirou, Thodoris Atheridis
Υπότιτλοι: Ελληνικοί, Ενσωματωμένοι
Διάρκεια: 120' Λεπτά
Μέγεθος: 1.77 GB
Μετάφραση: DVD

IMDb

ΥΠΟΘΕΣΗ

Στο σκοτάδι απαντάς με φως.

Ο μεγάλος έλληνας συγγραφέας Νίκος Καζαντζάκης, ο οποίος γεννήθηκε στα τέλη του 19ου αιώνα και πέθανε το 1957, έλεγε πως δύο πράγματα καθόρισαν την ζωή του: τα όνειρα και τα ταξίδια. Η ταινία ξεκινάει με ένα όνειρο λίγο πριν το θάνατό του, έναν εφιάλτη που καταλήγει στο πρόσωπο του Δομίνικου Θεοτοκόπουλου και η ταινία τελειώνει με ένα λυτρωτικό όνειρο μέσα στο Φως. Ο Καζαντζάκης, ακολουθώντας τα όνειρά του οδηγείται στην συγγραφή του αυτοβιογραφικού έργου του, «Αναφορά στον Γκρέκο», σε κεφάλαια με συμπαραστάτη τη διαισθητική συντρόφισσά του, Ελένη. Τα κεφάλαια αυτά σε flashback θα ζωντανεύουν ως ένα συνεχές ταξίδι στους τόπους που επισκέφθηκε. το Άγιον Όρος, το Όρος Σινά, το Παρίσι, τη Βιέννη, το Βερολίνο, τη Μόσχα και το Πεκίνο. Συγχρόνως, τα ταξίδια αυτά είναι ένα συνεχές εσωτερικό ταξίδι του συγγραφέα, ο οποίος αναζητά και διεκδικεί να κατανοήσει βιωματικά τον Χριστό, τον Βούδα, τον Νίτσε, τον Λένιν, για να καταλήξει στον πρόγονό του τον Οδυσσέα, και στη μεγάλη μήτρα, το Αιγαίον Πέλαγος και το Ελληνικό Φως.

HNq4zirh.jpg

[video]https://www.youtube.com/watch?v=5GxzCduV_So[/video]

https://www.imdb.com/title/tt6078532/
https://www.cine.gr/film.asp?id=723078

ΤΕΧΝΙΚΑ ΧΑΡΑΚΤΗΡΙΣΤΙΚΑ


General
Complete name               : MEGALOSPOIHTHS.2017.mkv
Format                      : Matroska
Format version              : Version 2
File size                   : 2.07 GiB
Duration                    : 1 h 55 min
Overall bit rate            : 2 561 kb/s
Movie name                  : MEGALOSPOIHTHS.20182
Encoded date                : UTC 2018-12-12 10:25:40
Writing application         : DVDFab 9.1.7.1
Writing library             : libebml v0.7.8 + libmatroska v0.8.1

Video
ID                          : 1
Format                      : AVC
Format/Info                 : Advanced Video Codec
Format profile              : [email protected]
Format settings             : CABAC / 2 Ref Frames
Format settings, CABAC      : Yes
Format settings, ReFrames   : 2 frames
Format settings, GOP        : M=3, N=24
Codec ID                    : V_MPEG4/ISO/AVC
Duration                    : 1 h 55 min
Bit rate                    : 2 110 kb/s
Width                       : 720 pixels
Height                      : 264 pixels
Display aspect ratio        : 2.727
Frame rate mode             : Constant
Frame rate                  : 25.000 FPS
Color space                 : YUV
Chroma subsampling          : 4:2:0
Bit depth                   : 8 bits
Scan type                   : Progressive
Bits/(Pixel*Frame)          : 0.444
Stream size                 : 1.67 GiB (81%)
Writing library             : x264 core 142
Encoding settings           : cabac=1 / ref=1 / deblock=1:-1:-1 / analyse=0x3:0 / me=hex / subme=5 / psy=0 / mixed_ref=0 / me_range=16 / chroma_me=1 / trellis=0 / 8x8dct=1 / cqm=0 / deadzone=21,11 / fast_pskip=1 / chroma_qp_offset=0 / threads=4 / lookahead_threads=1 / sliced_threads=0 / nr=0 / decimate=1 / interlaced=0 / bluray_compat=0 / constrained_intra=0 / bframes=2 / b_pyramid=0 / b_adapt=1 / b_bias=0 / direct=1 / weightb=1 / open_gop=0 / weightp=0 / keyint=24 / keyint_min=13 / scenecut=40 / intra_refresh=0 / rc=2pass / mbtree=0 / bitrate=2110 / ratetol=1.0 / qcomp=0.60 / qpmin=0 / qpmax=69 / qpstep=4 / cplxblur=20.0 / qblur=0.5 / ip_ratio=1.40 / pb_ratio=1.30 / aq=1:1.00
Default                     : Yes
Forced                      : No
Color range                 : Limited
Color primaries             : BT.601 NTSC
Transfer characteristics    : BT.709
Matrix coefficients         : BT.601

Audio
ID                          : 2
Format                      : AC-3
Format/Info                 : Audio Coding 3
Commercial name             : Dolby Digital
Codec ID                    : A_AC3
Duration                    : 1 h 55 min
Bit rate mode               : Constant
Bit rate                    : 448 kb/s
Channel(s)                  : 6 channels
Channel layout              : L R C LFE Ls Rs
Sampling rate               : 48.0 kHz
Frame rate                  : 31.250 FPS (1536 SPF)
Bit depth                   : 16 bits
Compression mode            : Lossy
Stream size                 : 371 MiB (17%)
Language                    : Greek
Service kind                : Complete Main
Default                     : Yes
Forced                      : No

Text
ID                          : 6
Format                      : VobSub
Codec ID                    : S_VOBSUB
Codec ID/Info               : Picture based subtitle format used on DVDs
Language                    : Greek
Default                     : No
Forced                      : No


qO4Dexcl.png

Hidden Content
You'll be able to see the hidden content once you reply to this topic.

  • Like 2
  • Thanks 1

Share this post


Link to post
Share on other sites
giannis1960

thanks   thanks   thanks

 

Share this post


Link to post
Share on other sites

Create an account or sign in to comment

You need to be a member in order to leave a comment

Create an account

Sign up for a new account in our community. It's easy!

Register a new account

Sign in

Already have an account? Sign in here.

Sign In Now
Sign in to follow this  

×