Jump to content
Sign in to follow this  
dionysos

netflix ABSURD PLANET - ΠΑΡΑΔΟΞΟΣ ΠΛΑΝΗΤΗΣ (2020) 1080p

Recommended Posts

dionysos

ABSURD PLANET - ΠΑΡΑΔΟΞΟΣ ΠΛΑΝΗΤΗΣ (2020) 1080p


nx8pkUN.jpg


9c8MzAu.png

Ξέρατε ότι οι κατσίκες έχουν διαφορετικές διαλέκτους, ανάλογα με το πού μεγαλώνουν; Τα στοιχεία για τα ζώα οδηγούν σ' ένα συμπέρασμα: είναι τέλειο να είσαι διαφορετικός.


9Sl28Dn.png

https://www.youtube.com/watch?v=-bFFNXICP-Y


wXrplQs.png

Qvcre2V.jpg

2blFkhb.png


https://www.imdb.com/title/tt12027008/



ΕΝΣΩΜΑΤΩΜΕΝΟΙ ΥΠΟΤΙΤΛΟΙ
Έτος: 2020
Καστ: Άφι Εκουλόνα
Είδη: Ντοκιμαντέρ για την επιστήμη και την φύση
Spoiler

 

General
Format                         : MPEG-4
Format profile                 : Base Media / Version 2
Codec ID                       : mp42 (mp42/mp41)
File size                      : 974 MiB
Duration                       : 18 min 1 s
Overall bit rate mode          : Variable
Overall bit rate               : 7 554 kb/s

Video
ID                             : 1
Format                         : AVC
Format/Info                    : Advanced Video Codec
Format profile                 : [email protected]
Format settings, CABAC         : Yes
Format settings, RefFrames     : 2 frames
Format settings, GOP           : M=3, N=23
Codec ID                       : avc1
Codec ID/Info                  : Advanced Video Coding
Duration                       : 18 min 1 s
Source duration                : 18 min 1 s
Bit rate mode                  : Variable
Bit rate                       : 7 041 kb/s
Maximum bit rate               : 24.0 Mb/s
Width                          : 1 920 pixels
Height                         : 1 080 pixels
Display aspect ratio           : 16:9
Frame rate mode                : Constant
Frame rate                     : 23.976 (24000/1001) FPS
Color space                    : YUV
Chroma subsampling             : 4:2:0
Bit depth                      : 8 bits
Scan type                      : Progressive
Bits/(Pixel*Frame)             : 0.142
Stream size                    : 908 MiB (93%)
Source stream size             : 908 MiB (93%)
Language                       : English

Audio
ID                             : 2
Format                         : AAC
Format/Info                    : Advanced Audio Codec
Format profile                 : LC
Codec ID                       : 40
Duration                       : 18 min 1 s
Source duration                : 18 min 1 s
Bit rate mode                  : Variable
Bit rate                       : 509 kb/s
Maximum bit rate               : 732 kb/s
Channel(s)                     : 6 channels
Channel positions              : Front: L C R, Side: L R, LFE
Sampling rate                  : 48.0 kHz
Frame rate                     : 46.875 FPS (1024 SPF)
Compression mode               : Lossy
Stream size                    : 65.7 MiB (7%)
Source stream size             : 65.7 MiB (7%)
Language                       : English

 



QEhSRZe.gif


VpN68Zi.png


SEASON 1

Hidden Content
You'll be able to see the hidden content once you reply to this topic.

Share this post


Link to post
Share on other sites
Red Bull

Thanks!

Share this post


Link to post
Share on other sites
artsig

Thanks

Share this post


Link to post
Share on other sites
bbest

thx

Share this post


Link to post
Share on other sites
KAFE

EYXARISTW

Share this post


Link to post
Share on other sites
Lavrentis0811

thx

Share this post


Link to post
Share on other sites

Create an account or sign in to comment

You need to be a member in order to leave a comment

Create an account

Sign up for a new account in our community. It's easy!

Register a new account

Sign in

Already have an account? Sign in here.

Sign In Now
Sign in to follow this  

×