Jump to content
Sign in to follow this  
POPIKOSTAS

SANTA BUDDIES (2009) DVDRip - ΜΕΤΑΓΛΩΤΤΙΣΜΕΝΟ

Recommended Posts

POPIKOSTAS

zSWthhHh.jpg

SANTA BUDDIES (2009) DVDRip - ΜΕΤΑΓΛΩΤΤΙΣΜΕΝΟ

WPcF3TQh.jpg

ΠΛΗΡΟΦΟΡΙΕΣ

Χώρες παραγωγής: Η.Π.Α., Καναδάς
Χρονιά παραγωγής: 2009
Πρώτη κυκλοφορία DVD στην Ευρώπη: 22/11/2009 - Βρετανία
Κυκλοφορία DVD στις Η.Π.Α. και τον Καναδά: 24/11/2009
Κυκλοφορία DVD στην Ελλάδα: 7/12/2009
Διάρκεια: 1:24:55

DVDRip, SubRip: DINOSAUR
Πηγή: DVD-R PAL Region 2

Ερμηνεύουν στα Ελληνικά:
Μη διαθέσιμη πληροφορία

Σκηνοθεσία: Robert Vince
Παραγωγή: Anna McRoberts & Robert Vince
Σενάριο: Kevin DiCicco, Robert Vince,
Anna McRoberts, Paul Tamasy & Aaron Mendelsohn
Φωτογραφία: Kamal Derkaoui
Μοντάζ: Kelly Herron
Μουσική: Brahm Wenger

Τοποθεσίες γυρισμάτων: Καναδάς
Aldergrove, British Columbia
Fort Langley, Langley Township, British Columbia
Vancouver, British Columbia


ΥΠΟΘΕΣΗ

     Όταν το Κουτάβι Πατούσα, ο σκανδαλιάρης και αγαπησιάρης γιος του Αγίου Πατούσα, αρχίζει να βαριέται τον βόρειο πόλο, βρίσκει τον Μπάντερμπολ μέσα στη λίστα των άτακτων του Άγιου Βασίλη και πιστεύει πως είναι το κατάλληλο σκυλί για να του δείξει πώς είναι ένα πραγματικό κουτάβι. Αλλά όταν ο μαγικός Χριστουγεννιάτικος παγοκρύσταλλος αρχίζει να λιώνει και ο κόσμος αρχίζει να ξεχνά την αληθινή έννοια των Χριστουγέννων, είναι στα πόδια του Κουτάβι Πατούσα και των νέων φιλαράκων του να σώσουν τα Χριστούγεννα.

     Η παρέα των ακαταμάχητων κουταβιών επιστρέφει για να ζήσει την πρώτη της γιορτινή περιπέτεια: μια περιπέτεια μεγαλύτερη κι απ’ το Βόρειο Πόλο. Μέχρι εκεί έφτασαν ο Μπουλούκος, ο Μπίχλας, ο Μπούντα, ο Μπιλάκος και η Μπουλούκα για να θυμίσουν στον γιο του Αγίου Γαβσίλη το αληθινό νόημα των Χριστουγέννων, όταν μοιάζει να το έχει ξεχάσει. Χριστούγεννα δε σημαίνει τι παίρνεις, αλλά τι δίνεις. Αυτό είναι το πιο σημαντικό.

RIjQD3Ch.jpg

 

 

https://www.imdb.com/title/tt1328875/

ΤΕΧΝΙΚΑ ΧΑΡΑΚΤΗΡΙΣΤΙΚΑ


General
Complete name               : Santa Buddies.2009.DVDRip.x264.AC3-GR Audio.mkv
Format                      : Matroska
Format version              : Version 4
File size                   : 1.20 GiB
Duration                    : 1 h 24 min
Overall bit rate            : 2 025 kb/s
Encoded date                : UTC 2018-12-07T07:44:11Z
Writing application         : HandBrake 1.1.2 2018090500
Writing library             : Lavf57.7.2

 

Video
ID                          : 1
Format                      : AVC
Format/Info                 : Advanced Video Codec
Format profile              : [email protected]
Format settings             : CABAC / 4 Ref Frames
Format settings, CABAC      : Yes
Format settings, ReFrames   : 4 frames
Codec ID                    : V_MPEG4/ISO/AVC
Duration                    : 1 h 24 min
Bit rate                    : 1 650 kb/s
Width                       : 720 pixels
Height                      : 400 pixels
Display aspect ratio        : 16:9
Frame rate mode             : Constant
Frame rate                  : 25.000 FPS
Color space                 : YUV
Chroma subsampling          : 4:2:0
Bit depth                   : 8 bits
Scan type                   : Progressive
Bits/(Pixel*Frame)          : 0.229
Stream size                 : 972 MiB (79%)
Writing library             : x264 core 155 r2901 7d0ff22
Encoding settings           : cabac=1 / ref=1 / deblock=1:-1:-1 / analyse=0x3:0x113 / me=hex / subme=2 / psy=1 / psy_rd=1.00:0.15 / mixed_ref=0 / me_range=16 / chroma_me=1 / trellis=0 / 8x8dct=1 / cqm=0 / deadzone=21,11 / fast_pskip=1 / chroma_qp_offset=0 / threads=6 / lookahead_threads=2 / sliced_threads=0 / nr=0 / decimate=1 / interlaced=0 / bluray_compat=0 / constrained_intra=0 / bframes=3 / b_pyramid=2 / b_adapt=1 / b_bias=0 / direct=1 / weightb=1 / open_gop=0 / weightp=1 / keyint=250 / keyint_min=25 / scenecut=40 / intra_refresh=0 / rc_lookahead=10 / rc=abr / mbtree=1 / bitrate=1650 / ratetol=1.0 / qcomp=0.60 / qpmin=0 / qpmax=69 / qpstep=4 / vbv_maxrate=62500 / vbv_bufsize=78125 / nal_hrd=none / filler=0 / ip_ratio=1.40 / aq=1:1.00
Default                     : Yes
Forced                      : No
Color range                 : Limited
Color primaries             : BT.601 PAL
Transfer characteristics    : BT.709
Matrix coefficients         : BT.601

Audio
ID                          : 2
Format                      : AC-3
Format/Info                 : Audio Coding 3
Commercial name             : Dolby Digital
Codec ID                    : A_AC3
Duration                    : 1 h 24 min
Bit rate mode               : Constant
Bit rate                    : 384 kb/s
Channel(s)                  : 6 channels
Channel layout              : L R C LFE Ls Rs
Sampling rate               : 48.0 kHz
Frame rate                  : 31.250 FPS (1536 SPF)
Bit depth                   : 16 bits
Compression mode            : Lossy
Stream size                 : 233 MiB (19%)
Title                       : Surround
Language                    : Greek
Service kind                : Complete Main
Default                     : Yes
Forced                      : No


1MFWSWwh.png

Hidden Content
You'll be able to see the hidden content once you reply to this topic.

Share this post


Link to post
Share on other sites

Create an account or sign in to comment

You need to be a member in order to leave a comment

Create an account

Sign up for a new account in our community. It's easy!

Register a new account

Sign in

Already have an account? Sign in here.

Sign In Now
Sign in to follow this  

×