Jump to content
POPIKOSTAS

AGLAMA ANNE (2018 - ) HDTv - ΕΝΣΩΜΑΤΩΜΕΝΟΙ ΥΠΟΤΙΤΛΟΙ ΩΣ 7

Recommended Posts

POPIKOSTAS

AwFUnFth.jpg

AGLAMA ANNE (2018 - ) HDTv - ΕΝΣΩΜΑΤΩΜΕΝΟΙ ΥΠΟΤΙΤΛΟΙ

leaqRC1h.jpg

Είδος σειράς: Drama
Series Directed by Feride Kaytan
Series Writing Credits  Esin Gok, Serdar Oguz, Ali Gogebakan
Stars: Birce Akalay, Ozlem Yilmaz, Cansel Elcin
Ήχος: Τούρκικα

“Μην κλαις μαμά, μην κλαις για μένα, και εγώ κάηκα όπως όλοι...”

Η σειρά είναι παραγωγή της εταιρείας SΓΌreΓ§ Film, την σκηνοθεσία της κάνει η Feride Kaytan, το σενάριό της γράφει η Esin GΓ¶k και παίρνουν μέρος οι ηθοποιοί Birce Akalay, Cansel ElΓ§in, Γ–zlem YΔ±lmaz, Ekin Mert Daymaz, AslΔ±han Malbora, Selim Bayraktar, Sezin AkbaΕΕΈoΔΕΈullarΔ±, Nihal KoldaΕΕΈ, Nisa Sofiya Aksongur, Turgay KantΓΌrk, Burcu GΓ¶nder και ο HΓΌseyin Soysalan.

Η σειρά περιγράφει την ιστορία μια ζωής και έχει το σλόγκαν “Τις τιμωρίες μερικών αμαρτιών τις τραβάνε οι αθώοι και μερικές από τις τιμωρίες αυτές κρατάνε για μια ζωή.”

Η Birce Akalay ενσαρκώνει τον ρόλο της Alev. Μια τρέλα που έκανε η Alev στα νεανικά της χρόνια όταν χώρισε από την οικογένεια της και έκανε βήματα για να ανεξαρτητοποιηθεί, θα της κάνει την ζωή άνω κάτω. Μετά από χρόνια θα γυρίσει να ζητήσει εκδίκηση από την οικογένειά της που της γύρισε την πλάτη και από τον Adnan, ο οποίος μπήκε στη ζωή της και μόλις τελείωσε την δουλειά του έφυγε.

Η συνέχεια επί της μικρής μας οθόνης...

[video=youtube;EXBo5jb1_hU]https://www.youtube.com/watch?v=EXBo5jb1_hU[/video]

https://www.imdb.com/title/tt9060276/?ref_=ttfc_fc_tt

f6qXDEFh.jpg

ΤΕΧΝΙΚΑ ΧΑΡΑΚΤΗΡΙΣΤΙΚΑ


General
Complete name               : TOKLAMATHSANNOYLAS.01.mkv
Format                      : Matroska
Format version              : Version 4
File size                   : 1.75 GiB
Duration                    : 2 h 26 min
Overall bit rate            : 1 704 kb/s
Encoded date                : UTC 2018-12-08 02:27:54
Writing application         : mkvmerge v22.0.0 ('At The End Of The World') 32-bit
Writing library             : libebml v1.3.5 + libmatroska v1.4.8

Video
ID                          : 1
Format                      : AVC
Format/Info                 : Advanced Video Codec
Format profile              : [email protected]
Format settings             : 1 Ref Frames
Format settings, CABAC      : No
Format settings, ReFrames   : 1 frame
Format settings, GOP        : M=1, N=12
Codec ID                    : V_MPEG4/ISO/AVC
Duration                    : 2 h 26 min
Bit rate                    : 1 603 kb/s
Width                       : 1 920 pixels
Height                      : 1 080 pixels
Display aspect ratio        : 16:9
Frame rate mode             : Constant
Frame rate                  : 25.000 FPS
Color space                 : YUV
Chroma subsampling          : 4:2:0
Bit depth                   : 8 bits
Scan type                   : Progressive
Bits/(Pixel*Frame)          : 0.031
Stream size                 : 1.64 GiB (94%)
Default                     : Yes
Forced                      : No

Audio
ID                          : 2
Format                      : AAC LC
Format/Info                 : Advanced Audio Codec Low Complexity
Codec ID                    : A_AAC-2
Duration                    : 2 h 26 min
Bit rate                    : 98.4 kb/s
Channel(s)                  : 2 channels
Channel layout              : L R
Sampling rate               : 44.1 kHz
Frame rate                  : 43.066 FPS (1024 SPF)
Compression mode            : Lossy
Stream size                 : 103 MiB (6%)
Language                    : Greek
Default                     : Yes
Forced                      : No


qO4Dexcl.png

Hidden Content
You'll be able to see the hidden content once you reply to this topic.

Edited by POPIKOSTAS
  • Like 1

Share this post


Link to post
Share on other sites
stella_geo

EYXARISTO

 

Share this post


Link to post
Share on other sites
POPIKOSTAS

Προστέθηκε το 3.

Share this post


Link to post
Share on other sites
POPIKOSTAS

Προστέθηκε το 4.

Share this post


Link to post
Share on other sites
POPIKOSTAS

Προστέθηκε το Link που έλειπε.
 

Share this post


Link to post
Share on other sites
POPIKOSTAS

Προστέθηκε το 5.

Share this post


Link to post
Share on other sites
fotini goumas
Στις ‎9‎/‎12‎/‎2018 στις 2:24 ΜΜ, POPIKOSTAS είπε

 

AwFUnFth.jpg

AGLAMA ANNE (2018 - ) HDTv - ΕΝΣΩΜΑΤΩΜΕΝΟΙ ΥΠΟΤΙΤΛΟΙ

leaqRC1h.jpg

Είδος σειράς: Drama
Series Directed by Feride Kaytan
Series Writing Credits  Esin Gok, Serdar Oguz, Ali Gogebakan
Stars: Birce Akalay, Ozlem Yilmaz, Cansel Elcin
Ήχος: Τούρκικα

“Μην κλαις μαμά, μην κλαις για μένα, και εγώ κάηκα όπως όλοι...”

Η σειρά είναι παραγωγή της εταιρείας SΓΌreΓ§ Film, την σκηνοθεσία της κάνει η Feride Kaytan, το σενάριό της γράφει η Esin GΓ¶k και παίρνουν μέρος οι ηθοποιοί Birce Akalay, Cansel ElΓ§in, Γ–zlem YΔ±lmaz, Ekin Mert Daymaz, AslΔ±han Malbora, Selim Bayraktar, Sezin AkbaΕŸoΔŸullarΔ±, Nihal KoldaΕŸ, Nisa Sofiya Aksongur, Turgay KantΓΌrk, Burcu GΓ¶nder και ο HΓΌseyin Soysalan.

Η σειρά περιγράφει την ιστορία μια ζωής και έχει το σλόγκαν “Τις τιμωρίες μερικών αμαρτιών τις τραβάνε οι αθώοι και μερικές από τις τιμωρίες αυτές κρατάνε για μια ζωή.”

Η Birce Akalay ενσαρκώνει τον ρόλο της Alev. Μια τρέλα που έκανε η Alev στα νεανικά της χρόνια όταν χώρισε από την οικογένεια της και έκανε βήματα για να ανεξαρτητοποιηθεί, θα της κάνει την ζωή άνω κάτω. Μετά από χρόνια θα γυρίσει να ζητήσει εκδίκηση από την οικογένειά της που της γύρισε την πλάτη και από τον Adnan, ο οποίος μπήκε στη ζωή της και μόλις τελείωσε την δουλειά του έφυγε.

Η συνέχεια επί της μικρής μας οθόνης...

[video=youtube;EXBo5jb1_hU]https://www.youtube.com/watch?v=EXBo5jb1_hU[/video]

 

https://www.imdb.com/title/tt9060276/?ref_=ttfc_fc_tt

 

f6qXDEFh.jpg

ΤΕΧΝΙΚΑ ΧΑΡΑΚΤΗΡΙΣΤΙΚΑ


General
Complete name               : TOKLAMATHSANNOYLAS.01.mkv
Format                      : Matroska
Format version              : Version 4
File size                   : 1.75 GiB
Duration                    : 2 h 26 min
Overall bit rate            : 1 704 kb/s
Encoded date                : UTC 2018-12-08 02:27:54
Writing application         : mkvmerge v22.0.0 ('At The End Of The World') 32-bit
Writing library             : libebml v1.3.5 + libmatroska v1.4.8

  Εμφάνιση κρυμμένων περιεχομένων

Video
ID                          : 1
Format                      : AVC
Format/Info                 : Advanced Video Codec
Format profile              : [email protected]
Format settings             : 1 Ref Frames
Format settings, CABAC      : No
Format settings, ReFrames   : 1 frame
Format settings, GOP        : M=1, N=12
Codec ID                    : V_MPEG4/ISO/AVC
Duration                    : 2 h 26 min
Bit rate                    : 1 603 kb/s
Width                       : 1 920 pixels
Height                      : 1 080 pixels
Display aspect ratio        : 16:9
Frame rate mode             : Constant
Frame rate                  : 25.000 FPS
Color space                 : YUV
Chroma subsampling          : 4:2:0
Bit depth                   : 8 bits
Scan type                   : Progressive
Bits/(Pixel*Frame)          : 0.031
Stream size                 : 1.64 GiB (94%)
Default                     : Yes
Forced                      : No

Audio
ID                          : 2
Format                      : AAC LC
Format/Info                 : Advanced Audio Codec Low Complexity
Codec ID                    : A_AAC-2
Duration                    : 2 h 26 min
Bit rate                    : 98.4 kb/s
Channel(s)                  : 2 channels
Channel layout              : L R
Sampling rate               : 44.1 kHz
Frame rate                  : 43.066 FPS (1024 SPF)
Compression mode            : Lossy
Stream size                 : 103 MiB (6%)
Language                    : Greek
Default                     : Yes
Forced                      : No

 

ΕΥΧΑΡΙΣΤΩ
qO4Dexcl.png

 

 

Στις ‎9‎/‎12‎/‎2018 στις 2:24 ΜΜ, POPIKOSTAS είπε

 

Hidden Content
You'll be able to see the hidden content once you reply to this topic.

 

ΕΥΧΑΡΙΣΤΩ

Share this post


Link to post
Share on other sites
POPIKOSTAS

Προστέθηκε το 6.

Share this post


Link to post
Share on other sites
Pelia

Σε ευχαριστώ πολύ .....POPIKOSTAS ,για τον κόπο και το χρόνο που αφιερώνεις!💕❣️💕

Share this post


Link to post
Share on other sites
POPIKOSTAS

Προστέθηκε το 7.

Share this post


Link to post
Share on other sites
helendr

ΕΥΧΑΡΙΣΤΩ

Share this post


Link to post
Share on other sites

Create an account or sign in to comment

You need to be a member in order to leave a comment

Create an account

Sign up for a new account in our community. It's easy!

Register a new account

Sign in

Already have an account? Sign in here.

Sign In Now

×