Jump to content
Sign in to follow this  
ScooterMan

θρίλερ CONTAGION (2011) 720p BRRip XViD AC3-OwnRip | ΕΝΣΩΜΑΤΩΜΕΝΟΙ ΥΠΟΤΙΤΛΟΙ

Recommended Posts

ScooterMan


ec1Zcf4.jpg


Ελληνικός Τίτλος: -
Είδος Ταινίας:  Action, Sci-Fi
Σκηνοθέτης: Steven Soderbergh
Σεναριογράφος:  Scott Z. Burns
Ηθοποιοί: Matt Damon, Marion Cotillard, Bryan Cranston, Kate Winslet
Ήχος: Αγγλικά
Υπότιτλοι: Ενσωματωμένοι Ελληνικοί Υπότιτλοι
Πρεμιέρα: 09 September 2011 (Greece)      
Μετάφραση: Original


Asp3ooN.png

 http://www.imdb.com/title/tt1598778 


Μία ταξιδιώτισσα παίρνει ξηρούς καρπούς από ένα μπολ στο μπαρ του αεροδρομίου, πριν δώσει την πιστωτική της κάρτα στον σερβιτόρο. Μια επαγγελματική συνάντηση ξεκινά με ανταλλαγή χειραψιών. Ένας άνδρας βήχει σε ένα κατάμεστο λεωφορείο... Μία επαφή... Μια στιγμή... Και ένας φονικός ιός έχει ήδη εξαπλωθεί. Όταν η Μπεθ Έμχοφ (Γκουίνεθ Πάλτροου) επιστρέφει στη Μινεάπολη από ένα επαγγελματικό ταξίδι στο Χονγκ-Κονγκ, η αδιαθεσία που απέδιδε στο τζετ-λαγκ υποτροπιάζει. Δύο ημέρες αργότερα, κείτεται νεκρή στην Εντατική, τη στιγμή που οι γιατροί λένε στον σοκαρισμένο σύζυγό της (Ματ Ντέιμον) ότι δεν ξέρουν πού οφείλεται ο θάνατός της. Πολύ σύντομα, και άλλοι άνθρωποι αρχίζουν να εκδηλώνουν τα μυστηριώδη συμπτώματα: έντονο βήχα και πυρετό, σπασμούς και εγκεφαλική αιμορραγία που οδηγούν στο θάνατο. Καθώς ο αριθμός των θυμάτων αυξάνεται ραγδαία και ο κόσμος προσπαθεί να προστατέψει τόσο τον εαυτό του, όσο και τους αγαπημένους του σε μια κοινωνία που καταρρέει, ένας ακτιβιστής μπλόγκερ (Τζουντ Λο) ισχυρίζεται ότι η κοινή γνώμη δεν έχει μάθει όλη την αλήθεια σχετικά με το τι συμβαίνει, πυροδοτώντας μια επιδημία παράνοιας και τρόμου εξίσου επικίνδυνη με τον ίδιο τον ιό.



General
Format                      : AVI
Format/Info                 : Audio Video Interleave
Format profile              : OpenDML
File size                   : 3.19 GiB
Duration                    : 1 h 46 min
Overall bit rate            : 4 289 kb/s
Writing library             : VirtualDub build 35491/release

Video
ID                          : 0
Format                      : MPEG-4 Visual
Format settings, BVOP       : No
Format settings, QPel       : No
Format settings, GMC        : No warppoints
Format settings, Matrix     : Default (H.263)
Codec ID                    : DX50
Codec ID/Hint               : DivX 5
Duration                    : 1 h 46 min
Bit rate                    : 3 639 kb/s
Nominal bit rate            : 9 708 kb/s
Width                       : 1 280 pixels
Height                      : 720 pixels
Display aspect ratio        : 16:9
Frame rate                  : 23.976 (24000/1001) FPS
Color space                 : YUV
Chroma subsampling          : 4:2:0
Bit depth                   : 8 bits
Scan type                   : Progressive
Compression mode            : Lossy
Bits/(Pixel*Frame)          : 0.165
Stream size                 : 2.70 GiB (85%)
Writing library             : DivX 6.8.5 (UTC 2009-08-20)

Audio
ID                          : 1
Format                      : AC-3
Format/Info                 : Audio Coding 3
Commercial name             : Dolby Digital
Codec ID                    : 2000
Duration                    : 1 h 46 min
Bit rate mode               : Constant
Bit rate                    : 640 kb/s
Channel(s)                  : 6 channels
Channel layout              : L R C LFE Ls Rs
Sampling rate               : 48.0 kHz
Frame rate                  : 31.250 FPS (1536 SPF)
Bit depth                   : 16 bits
Compression mode            : Lossy
Stream size                 : 487 MiB (15%)
Alignment                   : Aligned on interleaves
Interleave, duration        : 42  ms (1.00 video frame)
Interleave, preload duratio : 512  ms
Service kind                : Complete Main


★★ EasyBytez ★★
Link For Free Users


Hidden Content
You'll be able to see the hidden content once you reply to this topic.

 

  • Like 1

Share this post


Link to post
Share on other sites
grilloscostas

thanks

Share this post


Link to post
Share on other sites
antilogos

thanks

Share this post


Link to post
Share on other sites
Bigalice2019

για να δουμε ..

Share this post


Link to post
Share on other sites
triant

thanks

Share this post


Link to post
Share on other sites
giannoskriti

ευχαριστώ

Share this post


Link to post
Share on other sites
nasti

thanks

Share this post


Link to post
Share on other sites
leon1977

thanx

Share this post


Link to post
Share on other sites

Create an account or sign in to comment

You need to be a member in order to leave a comment

Create an account

Sign up for a new account in our community. It's easy!

Register a new account

Sign in

Already have an account? Sign in here.

Sign In Now
Sign in to follow this  

×