Sign in to follow this  
POPIKOSTAS

SAHSIYET - ΠΡΟΣΩΠΙΚΟΤΗΤΑ (2018 - ) HDTv - ΕΝΣΩΜΑΤΩΜΕΝΟΙ ΥΠΟΤΙΤΛΟΙ ΩΣ 12

Recommended Posts

hellas2025
Στις 7/12/2018 στις 4:47 ΠΜ, POPIKOSTAS είπε

 

AQccDYjh.jpg

SAHSIYET - ΠΡΟΣΩΠΙΚΟΤΗΤΑ (2018 - ) HDTv - ΕΝΣΩΜΑΤΩΜΕΝΟΙ ΥΠΟΤΙΤΛΟΙ

BAI0Opoh.jpg

Όλα τα ευχαριστώ, στην ομάδα TMS-GS, που μετέφρασε τη σειρά, η οποία ολοκληρώθηκε.

Είδος σειράς: Comedy, Drama
Series Directed by Onur Saylak
Series Writing Credits  Hakan Gunday
Stars: Haluk Bilginer, Cansu Dere, Metin AkdΓΌlger
Ήχος:Τούρκικα

Ένας άντρας που διαγνώστηκε με αλτσχαϊμερ, αποφασίζει να τιμωρήσει τους εγκληματίες.

Η συνέχεια επί της μικρής μας οθόνης...

[video=youtube;cLGeqhZF3_0]https://www.youtube.com/watch?v=cLGeqhZF3_0[/video]

 

https://www.imdb.com/title/tt7920978/?ref_=ttfc_fc_tt

 

VSmT1BSh.jpg

ΤΕΧΝΙΚΑ ΧΑΡΑΚΤΗΡΙΣΤΙΚΑ


General
Complete name               : MEGALOPROSWPO.S01E01.avi
Format                      : AVI
Format/Info                 : Audio Video Interleave
File size                   : 1.45 GiB
Duration                    : 1 h 12 min
Overall bit rate            : 2 877 kb/s
Movie name                  : Γ…ΕΎahsiyet Sezon 1 BL 01 17.03.2018 1080p HD WEB-DL x264 AAC - HdT
Writing application         : Lavf55.12.100
Writing library             : VirtualDub build 35491/release

  Εμφάνιση κρυμμένων περιεχομένων

Video
ID                          : 0
Format                      : MPEG-4 Visual
Format profile              : Advanced [email protected]
Format settings             : BVOP2
Format settings, BVOP       : 2
Format settings, QPel       : No
Format settings, GMC        : No warppoints
Format settings, Matrix     : Default (H.263)
Muxing mode                 : Packed bitstream
Codec ID                    : XVID
Codec ID/Hint               : XviD
Duration                    : 1 h 12 min
Bit rate                    : 2 737 kb/s
Width                       : 1 920 pixels
Height                      : 1 080 pixels
Display aspect ratio        : 16:9
Frame rate                  : 25.000 FPS
Color space                 : YUV
Chroma subsampling          : 4:2:0
Bit depth                   : 8 bits
Scan type                   : Progressive
Compression mode            : Lossy
Bits/(Pixel*Frame)          : 0.053
Stream size                 : 1.38 GiB (95%)
Writing library             : XviD 64

Audio
ID                          : 1
Format                      : MPEG Audio
Format version              : Version 1
Format profile              : Layer 3
Format settings             : Joint stereo / MS Stereo
Mode                        : Joint stereo
Mode extension              : MS Stereo
Codec ID                    : 55
Codec ID/Hint               : MP3
Duration                    : 1 h 12 min
Bit rate mode               : Constant
Bit rate                    : 128 kb/s
Channel(s)                  : 2 channels
Sampling rate               : 44.1 kHz
Compression mode            : Lossy
Stream size                 : 66.2 MiB (4%)
Alignment                   : Aligned on interleaves
Interleave, duration        : 26  ms (0.65 video frame)
Interleave, preload duratio : 522  ms
Writing library             : LAME3.99.5

 


qO4Dexcl.png

 

Hidden Content
You'll be able to see the hidden content once you reply to this topic.

 

 

thx

Share this post


Link to post
Share on other sites

Create an account or sign in to comment

You need to be a member in order to leave a comment

Create an account

Sign up for a new account in our community. It's easy!

Register a new account

Sign in

Already have an account? Sign in here.

Sign In Now
Sign in to follow this