Jump to content
Sign in to follow this  
POPIKOSTAS

δράσης GANGSTER SQUAD-ΟΙ ΔΙΩΚΤΕΣ ΤΟΥ ΕΚΛΗΜΑΤΟΣ (2013) 720p Bluray DTS x264-HiDt | ΞΕΧΩΡΙΣΤΟΙ ΥΠΟΤΙΤΛΟΙ

Recommended Posts

POPIKOSTAS

9jfXjfoh.jpg

GANGSTER SQUAD-ΟΙ ΔΙΩΚΤΕΣ ΤΟΥ ΕΚΛΗΜΑΤΟΣ (2013) 720p Bluray DTS x264-HiDt | ΞΕΧΩΡΙΣΤΟΙ ΥΠΟΤΙΤΛΟΙ

Ελλ.Τίτλος    : Οι Διώκτες Του Εγκλήματος
Είδος: Action | Crime | Drama
Πρεμιέρα: 24 January 2013 (Greece)
Διαρκεια 1h 53min
hYYPP://www.imdb.com/title/tt1321870   6.7/10
Σκηνοθεσία: Ruben Fleischer
Σενάριο: Will Beall, Paul Lieberman
Ηθοποιοί: Emma Stone, Ryan Gosling, Josh Brolin, Sean Penn
Yπότιτλοι: Eλληνικοί Εξωτερικοι
Μετάφραση: G V

Λος Άντζελες, 1949 - Ο αδίστακτος μαφιόζος Μίκι Κοέν (Σον Πεν) έχει πάρει τον έλεγχο της πόλης, αποκτώντας περιουσία από ναρκωτικά, όπλα, πορνεία και κάθε στοίχημα που παίζεται στα δυτικά του Σικάγο. Κι όλα αυτά, απολαμβάνοντας την προστασία όχι μόνο των πρωτοπαλίκαρών του, αλλά της αστυνομίας και των πολιτικών που κρατάει στο χέρι. Με τόση δύναμη, είναι εύκολο να τρομοκρατήσει ακόμα και τους πιο γενναίους αστυνομικούς της πιάτσας... εκτός ίσως, από μια μικρή μυστική ομάδα της Αστυνομίας του Λος Άντζελες, με επικεφαλής τον Αστυνόμο Τζον Ο΄Μάρα (Τζος Μπρόλιν) και τον Τζέρι Γούτερς (Ράιαν Γκόσλινγκ), που θα ενώσουν τις δυνάμεις τους για να διαλύσουν τον κόσμο του Κοέν.

Τη μάχη του Αστυνομικού Τμήματος του Los Angeles κατά τη μαφίας τις δεκαετίες '40 και '50 αποφάσισε να μεταφέρει στη μεγάλη οθόνη ο Ruben Fleischer, που πολλοί ίσως να θυμάστε από το ξεκαρδιστικό «Zombieland». Σε αυτήν την προσπάθειά του επιστράτευσε ένα πραγματικό all star cast, που από μόνο του αρκεί για να σας δελεάσει. Οι Sean Penn, Ryan Gosling, Josh Brolin, Nick Nolte και Emma Stone ντύνονται με κοστούμια εποχής και μας μεταφέρουν στην Ανατολική Ακτή της μαφίας και της διαφθοράς.

screens_zpsfujiylvq.gif

XiZu8dZh.jpg

[video=youtube;Xl9psDvDbDU]https://www.youtube.com/watch?v=Xl9psDvDbDU[/video]

http://www.imdb.com/title/tt1321870/

ΤΕΧΝΙΚΑ ΧΑΡΑΚΤΗΡΙΣΤΙΚΑ


Complete name                            : Gangster.Squad.2013.720p.BluRay.DTS.x264-HiDt.mkv
Format                                   : Matroska
Format version                           : Version 2
File size                                : 5.38 GiB
Duration                                 : 1 h 52 min
Overall bit rate                         : 6 826 kb/s
Encoded date                             : UTC 2013-04-13 10:41:54
Writing application                      : mkvmerge v5.2.1 ('A Far Off Place') built on Jan  2 2012 23:21:10
Writing library                          : libebml v1.2.3 + libmatroska v1.3.0

Video
ID                                       : 1
Format                                   : AVC
Format/Info                              : Advanced Video Codec
Format profile                           : [email protected]
Format settings, CABAC                   : Yes
Format settings, ReFrames                : 12 frames
Codec ID                                 : V_MPEG4/ISO/AVC
Duration                                 : 1 h 52 min
Bit rate                                 : 4 989 kb/s
Width                                    : 1 280 pixels
Height                                   : 534 pixels
Display aspect ratio                     : 2.40:1
Frame rate mode                          : Constant
Frame rate                               : 23.976 (24000/1001) FPS
Color space                              : YUV
Chroma subsampling                       : 4:2:0
Bit depth                                : 8 bits
Scan type                                : Progressive
Bits/(Pixel*Frame)                       : 0.304
Stream size                              : 3.94 GiB (73%)
Title                                    : HiDt
Writing library                          : x264 core 120 r2164 da19765
Encoding settings                        : cabac=1 / ref=12 / deblock=1:-3:-3 / analyse=0x3:0x113 / me=tesa / subme=11 / psy=1 / psy_rd=0.90:0.00 / mixed_ref=1 / me_range=32 / chroma_me=1 / trellis=2 / 8x8dct=1 / cqm=0 / deadzone=21,11 / fast_pskip=0 / chroma_qp_offset=-2 / threads=12 / sliced_threads=0 / nr=0 / decimate=1 / interlaced=0 / bluray_compat=0 / constrained_intra=0 / bframes=8 / b_pyramid=2 / b_adapt=2 / b_bias=0 / direct=3 / weightb=1 / open_gop=0 / weightp=2 / keyint=250 / keyint_min=25 / scenecut=40 / intra_refresh=0 / rc=crf / mbtree=0 / crf=15.1 / qcomp=0.70 / qpmin=0 / qpmax=69 / qpstep=4 / ip_ratio=1.40 / pb_ratio=1.30 / aq=1:0.90
Language                                 : English
Default                                  : Yes
Forced                                   : No
Color range                              : Limited
Matrix coefficients                      : BT.709

Audio #1
ID                                       : 2
Format                                   : DTS
Format/Info                              : Digital Theater Systems
Mode                                     : 16
Format settings, Endianness              : Big
Codec ID                                 : A_DTS
Duration                                 : 1 h 52 min
Bit rate mode                            : Constant
Bit rate                                 : 1 509 kb/s
Channel(s)                               : 6 channels
Channel positions                        : Front: L C R, Side: L R, LFE
Sampling rate                            : 48.0 kHz
Frame rate                               : 93.750 FPS (512 spf)
Bit depth                                : 24 bits
Compression mode                         : Lossy
Stream size                              : 1.19 GiB (22%)
Title                                    : DTS 5.1
Language                                 : English
Default                                  : Yes
Forced                                   : No

Audio #2
ID                                       : 3
Format                                   : AC-3
Format/Info                              : Audio Coding 3
Format profile                           : Dolby Digital
Mode extension                           : CM (complete main)
Format settings, Endianness              : Big
Codec ID                                 : A_AC3
Duration                                 : 1 h 52 min
Bit rate mode                            : Constant
Bit rate                                 : 192 kb/s
Channel(s)                               : 2 channels
Channel positions                        : Front: L R
Sampling rate                            : 48.0 kHz
Frame rate                               : 31.250 FPS (1536 spf)
Compression mode                         : Lossy
Stream size                              : 155 MiB (3%)
Title                                    : Commentary DD2.0
Language                                 : English
Default                                  : No
Forced                                   : No

Text #1
ID                                       : 4
Format                                   : UTF-8
Codec ID                                 : S_TEXT/UTF8
Codec ID/Info                            : UTF-8 Plain Text
Language                                 : English
Default                                  : Yes
Forced                                   : No

Text #2
ID                                       : 5
Format                                   : UTF-8
Codec ID                                 : S_TEXT/UTF8
Codec ID/Info                            : UTF-8 Plain Text
Language                                 : English
Default                                  : No
Forced                                   : No

Text #3
ID                                       : 6
Format                                   : UTF-8
Codec ID                                 : S_TEXT/UTF8
Codec ID/Info                            : UTF-8 Plain Text
Language                                 : French
Default                                  : No
Forced                                   : No

Text #4
ID                                       : 7
Format                                   : UTF-8
Codec ID                                 : S_TEXT/UTF8
Codec ID/Info                            : UTF-8 Plain Text
Language                                 : Portuguese
Default                                  : No
Forced                                   : No

Text #5
ID                                       : 8
Format                                   : UTF-8
Codec ID                                 : S_TEXT/UTF8
Codec ID/Info                            : UTF-8 Plain Text
Language                                 : Spanish
Default                                  : No
Forced                                   : No


qO4Dexcl.png

Hidden Content
You'll be able to see the hidden content once you reply to this topic.

Share this post


Link to post
Share on other sites
XTIKIARHS97

thanks

Share this post


Link to post
Share on other sites

Create an account or sign in to comment

You need to be a member in order to leave a comment

Create an account

Sign up for a new account in our community. It's easy!

Register a new account

Sign in

Already have an account? Sign in here.

Sign In Now
Sign in to follow this  

×