Jump to content
Sign in to follow this  
axhsa

δράσης MIDWAY (2019) UHD BluRay 2160p TrueHD Atmos 7.1 HEVC REMUX-FraMeSToR ΞΕΧΩΡΙΣΤΟΙ ΥΠΟΤΙΤΛΟΙ

Recommended Posts

axhsa

 

vavVJcR.png


Η Ναυμαχία του Μίντγουεϊ εξιστορεί μία από τις πιο φημισμένες μάχες μεταξύ του αμερικανικού και ιαπωνικού στόλου, που έδωσε στις αμερικανικές δυνάμεις το προβάδισμα στο μέτωπο του Ειρηνικού στη διάρκεια του Β' Παγκοσμίου Πολέμου. Η ταινία, βασισμένη σε πραγματικά γεγονότα, αφηγείται την ιστορία των αξιωματικών και των στρατιωτών, που χρησιμοποίησαν το ένστικτο τους, το σθένος τους και τον ηρωισμό τους για να νικήσουν τον εχθρό, παρά τις αντίξοες συνθήκες.


usDrZmS.png

https://www.imdb.com/title/tt6924650/


Είδος Ταινίας: Action, Drama, History
Πρεμιέρα: 12 December 2019 (Greece)
Σκηνοθέτης: Roland Emmerich
Σενάριο: Wes Tooke
Ηθοποιοί: Ed Skrein, Patrick Wilson, Woody Harrelson
Ελληνικός Τίτλος: Η Ναυμαχία του Μίντγουεϊ
Μετάφραση: Mikemyk
Διάρκεια: 138'

 

3sZwobQ.png

 

General
Unique ID                      : 166862900165499745272536832790265018234 (0x7D88A0278EC8C84394CA40522C67377A)
Complete name                  : I:\Midway.2019.UHD.BluRay.2160p.TrueHD.Atmos.7.1.HEVC.REMUX-FraMeSToR\Midway.2019.UHD.BluRay.2160p.TrueHD.Atmos.7.1.HEVC.REMUX-FraMeSToR.mkv
Format                         : Matroska
Format version                 : Version 4 / Version 2
File size                      : 62.4 GiB
Duration                       : 2h 18mn
Overall bit rate mode          : Variable
Overall bit rate               : 64.5 Mbps
Movie name                     : Midway 4K
Encoded date                   : UTC 2020-02-07 09:30:58
Writing application            : mkvmerge v43.0.0 ('The Quartermaster') 64-bit
Writing library                : libebml v1.3.10 + libmatroska v1.5.2
DURATION                       : 02:08:48.387000000
NUMBER_OF_FRAMES               : 2934
NUMBER_OF_BYTES                : 35200031
_STATISTICS_WRITING_APP        : mkvmerge v43.0.0 ('The Quartermaster') 64-bit
_STATISTICS_WRITING_DATE_UTC   : 2020-02-07 09:30:58
_STATISTICS_TAGS               : BPS DURATION NUMBER_OF_FRAMES NUMBER_OF_BYTES

Video
ID                             : 1
Format                         : HEVC
Format/Info                    : High Efficiency Video Coding
Format profile                 : Main [email protected]@High
Codec ID                       : V_MPEGH/ISO/HEVC
Duration                       : 2h 18mn
Width                          : 3 840 pixels
Height                         : 2 160 pixels
Display aspect ratio           : 16:9
Frame rate mode                : Constant
Frame rate                     : 23.976 fps
Color space                    : YUV
Chroma subsampling             : 4:2:0
Bit depth                      : 10 bits
Default                        : Yes
Forced                         : No
Color range                    : Limited
Color primaries                : BT.2020
Matrix coefficients            : BT.2020 non-constant

Audio #1
ID                             : 2
Format                         : TrueHD
Codec ID                       : A_TRUEHD
Duration                       : 2h 18mn
Bit rate mode                  : Variable
Maximum bit rate               : 5 460 Kbps
Channel(s)                     : 8 channels
Channel positions              : Front: L C R, Side: L R, Back: L R, LFE
Sampling rate                  : 48.0 KHz
Compression mode               : Lossless
Title                          : TrueHD Atmos 7.1
Language                       : English
Default                        : Yes
Forced                         : No

Audio #2
ID                             : 3
Format                         : AC-3
Format/Info                    : Audio Coding 3
Mode extension                 : CM (complete main)
Format settings, Endianness    : Big
Codec ID                       : A_AC3
Duration                       : 2h 18mn
Bit rate mode                  : Constant
Bit rate                       : 448 Kbps
Channel(s)                     : 6 channels
Channel positions              : Front: L C R, Side: L R, LFE
Sampling rate                  : 48.0 KHz
Bit depth                      : 16 bits
Compression mode               : Lossy
Stream size                    : 444 MiB (1%)
Title                          : AC3 5.1-EX
Language                       : English
Default                        : No
Forced                         : No

Audio #3
ID                             : 4
Format                         : AC-3
Format/Info                    : Audio Coding 3
Mode extension                 : CM (complete main)
Format settings, Endianness    : Big
Codec ID                       : A_AC3
Duration                       : 2h 18mn
Bit rate mode                  : Constant
Bit rate                       : 192 Kbps
Channel(s)                     : 2 channels
Channel positions              : Front: L R
Sampling rate                  : 48.0 KHz
Bit depth                      : 16 bits
Compression mode               : Lossy
Stream size                    : 190 MiB (0%)
Title                          : Commentary by Director Roland Emmerich
Language                       : English
Default                        : No
Forced                         : No

 

Lkeys0T.jpg

 

EASYBYTEZ| FILEFACTORY| NITROFLARE | LINK FOR FREE USERS


Hidden Content
You'll be able to see the hidden content once you reply to this topic.

Share this post


Link to post
Share on other sites

Create an account or sign in to comment

You need to be a member in order to leave a comment

Create an account

Sign up for a new account in our community. It's easy!

Register a new account

Sign in

Already have an account? Sign in here.

Sign In Now
Sign in to follow this  

×