Jump to content
Sign in to follow this  
POPIKOSTAS

THE CHRISTMAS CHRONICLES-ΤΑ ΧΡΟΝΙΚΑ ΤΩΝ ΧΡΙΣΤΟΥΓΕΝΝΩΝ (2018) 1080p NF WEB-DL DD5.1 H264-ΜΕΤΑΓΛΩΤΤΙΣΜΕΝΟ

Recommended Posts

POPIKOSTAS

0wDfcTXh.jpg

THE CHRISTMAS CHRONICLES-ΤΑ ΧΡΟΝΙΚΑ ΤΩΝ ΧΡΙΣΤΟΥΓΕΝΝΩΝ (2018) 1080p NF WEB-DL DD5.1 H264-ΜΕΤΑΓΛΩΤΤΙΣΜΕΝΟ

ΠΛΗΡΟΦΟΡΙΕΣ

Κατηγορία : Adventure, Comedy, Family
Σκηνοθεσία : Clay Kaytis
Σενάριο :  David Guggenheim (story by), Matt Lieberman
Πρωταγωνιστές : Kurt Russell, Darby Camp, Judah Lewis

ΥΠΟΘΕΣΗ

Πρόκειται για ένα χριστουγεννιάτικο οικογενειακό φιλμ όπου στον κεντρικό ρόλο βλέπουμε τον Kurt Russell ο οποίος ντύνεται με την στολή του Αϊ Βασίλη και μας δίνει την πιο μοντέρνα του εκδοχή. Ο διάσημος ηθοποιός θα μας συστηθεί εδώ ως η παραπάνω φιγούρα χωρίς να σημαίνει ότι θα είναι και το τυπικότερο παράδειγμα αυτού που λέμε Santa Claus. Υποκριτικά τον Kurt Russell πλαισιώνουν ο Judah Lewis (The Babysitter) και η Darby Camp (Big Little Lies) που υποδύονται δύο αδέρφια, τον ‘Teddy’ και την ‘Kate Pierce’. Τα δύο αυτά παιδιά σχεδιάζουν να καταγράψουν με την κάμερα τους τον Αϊ Βασίλη καθώς επισκέπτεται με το έλκηθρό του το Σικάγο, όμως τα πράγματα δεν πάνε όπως τα υπολόγιζαν. Τελικά, για να σώσουν αυτά τα Χριστούγεννα αποφασίζουν να συμμαχήσουν με τον Santa Claus και τα ξωτικά του.

CdIHb7Jh.jpg

[video]https://www.youtube.com/watch?v=YaeDa_Uempk[/video]

https://www.imdb.com/title/tt2990140/

ΤΕΧΝΙΚΑ ΧΑΡΑΚΤΗΡΙΣΤΙΚΑ


General
Complete name               : The.Christmas.Chronicles.2018.1080p.NF.WEB-DL.DD5.1.H264.mkv
Format                      : Matroska
Format version              : Version 4
File size                   : 4.18 GiB
Duration                    : 1 h 44 min
Overall bit rate            : 5 729 kb/s
Encoded date                : UTC 2018-11-25T02:10:17Z
Writing application         : HandBrake 1.0.7 2017040900
Writing library             : Lavf57.7.2

Video
ID                          : 1
Format                      : AVC
Format/Info                 : Advanced Video Codec
Format profile              : [email protected]
Format settings             : CABAC / 4 Ref Frames
Format settings, CABAC      : Yes
Format settings, ReFrames   : 4 frames
Codec ID                    : V_MPEG4/ISO/AVC
Duration                    : 1 h 44 min
Bit rate                    : 4 959 kb/s
Width                       : 1 920 pixels
Height                      : 1 036 pixels
Display aspect ratio        : 1.85:1
Frame rate mode             : Constant
Frame rate                  : 24.000 FPS
Color space                 : YUV
Chroma subsampling          : 4:2:0
Bit depth                   : 8 bits
Scan type                   : Progressive
Bits/(Pixel*Frame)          : 0.104
Stream size                 : 3.54 GiB (85%)
Writing library             : x264 core 148 r2708 86b7198
Encoding settings           : cabac=1 / ref=2 / deblock=1:0:0 / analyse=0x1:0x111 / me=hex / subme=6 / psy=1 / psy_rd=1.00:0.00 / mixed_ref=1 / me_range=16 / chroma_me=1 / trellis=1 / 8x8dct=0 / cqm=0 / deadzone=21,11 / fast_pskip=1 / chroma_qp_offset=-2 / threads=12 / lookahead_threads=2 / sliced_threads=0 / nr=0 / decimate=1 / interlaced=0 / bluray_compat=0 / constrained_intra=0 / bframes=3 / b_pyramid=2 / b_adapt=1 / b_bias=0 / direct=1 / weightb=1 / open_gop=0 / weightp=1 / keyint=240 / keyint_min=24 / scenecut=40 / intra_refresh=0 / rc_lookahead=30 / rc=2pass / mbtree=1 / bitrate=4959 / ratetol=1.0 / qcomp=0.60 / qpmin=0 / qpmax=69 / qpstep=4 / cplxblur=20.0 / qblur=0.5 / vbv_maxrate=240000 / vbv_bufsize=240000 / nal_hrd=none / filler=0 / ip_ratio=1.40 / aq=1:1.00
Default                     : Yes
Forced                      : No
Color range                 : Limited
Color primaries             : BT.709
Transfer characteristics    : BT.709
Matrix coefficients         : BT.709

Audio #1
ID                          : 2
Format                      : AC-3
Format/Info                 : Audio Coding 3
Commercial name             : Dolby Digital
Codec ID                    : A_AC3
Duration                    : 1 h 44 min
Bit rate mode               : Constant
Bit rate                    : 384 kb/s
Channel(s)                  : 6 channels
Channel layout              : L R C LFE Ls Rs
Sampling rate               : 48.0 kHz
Frame rate                  : 31.250 FPS (1536 SPF)
Bit depth                   : 16 bits
Compression mode            : Lossy
Delay relative to video     : -46 ms
Stream size                 : 287 MiB (7%)
Title                       : Surround
Language                    : Greek
Service kind                : Complete Main
Default                     : Yes
Forced                      : No

Audio #2
ID                          : 3
Format                      : AC-3
Format/Info                 : Audio Coding 3
Commercial name             : Dolby Digital
Codec ID                    : A_AC3
Duration                    : 1 h 44 min
Bit rate mode               : Constant
Bit rate                    : 384 kb/s
Channel(s)                  : 6 channels
Channel layout              : L R C LFE Ls Rs
Sampling rate               : 48.0 kHz
Frame rate                  : 31.250 FPS (1536 SPF)
Bit depth                   : 16 bits
Compression mode            : Lossy
Delay relative to video     : -46 ms
Stream size                 : 287 MiB (7%)
Title                       : Surround
Language                    : English
Service kind                : Complete Main
Default                     : No
Forced                      : No


1MFWSWwh.png

Hidden Content
You'll be able to see the hidden content once you reply to this topic.

Share this post


Link to post
Share on other sites

Create an account or sign in to comment

You need to be a member in order to leave a comment

Create an account

Sign up for a new account in our community. It's easy!

Register a new account

Sign in

Already have an account? Sign in here.

Sign In Now
Sign in to follow this  

×