Sign in to follow this  
POPIKOSTAS

FROZEN II - ΨΥΧΡΑ ΚΙ ΑΝΑΠΟΔΑ 2 (2019) BRRip XviD AC3-XVID | ENΣΩΜΑΤΩΜΕΝΟΙ ΥΠΟΤΙΤΛΟΙ

Recommended Posts

POPIKOSTAS

H5eDgnFh.jpg

FROZEN II - ΨΥΧΡΑ ΚΙ ΑΝΑΠΟΔΑ 2 (2019) BRRip XviD AC3-XVID | ENΣΩΜΑΤΩΜΕΝΟΙ ΥΠΟΤΙΤΛΟΙ

ΠΛΗΡΟΦΟΡΙΕΣ

ΣΚΗΝΟΘΕΣΙΑ : Chris Buck, Jennifer Lee
ΣΕΝΑΡΙΟ : Jennifer Lee (screenplay by), Jennifer Lee (story by)
ΗΘΟΠΟΙΟΙ : Kristen Bell, Idina Menzel, Josh Gad
ΕΙΔΟΣ : Animation, Adventure, Comedy
ΠΡΕΜΙΕΡΑ : 28 Νοεμβρίου 2019
ΜΕΤΑΦΡΑΣΗ : -LEMON- 2019

ΥΠΟΘΕΣΗ

Ακούγοντας μια απόκοσμη φωνή να την καλεί από τον μακρινό Βορρά, η βασίλισσα Έλσα ξεκινά μαζί με τους Άννα, Κριστόφ και Όλαφ ένα ταξίδι στο Μαγεμένο Δάσος, όπου κρύβεται το μυστικό της καταγωγής της και η αιτία που κινδυνεύει το βασίλειο της Άρεντελ από τα στοιχεία της φύσης.

D1XzTy3h.png

[video=youtube;_uh5vltQ7Ik]https://www.youtube.com/watch?v=_uh5vltQ7Ik[/video]

https://www.imdb.com/title/tt4520988/?ref_=nv_sr_srsg_0

ΤΕΧΝΙΚΑ ΧΑΡΑΚΤΗΡΙΣΤΙΚΑ


General
Complete name               : Frozen.II.2019.BRRip.XviD.AC3-XVID.avi
Format                      : AVI
Format/Info                 : Audio Video Interleave
File size                   : 1.48 GiB
Duration                    : 1 h 43 min
Overall bit rate            : 2 053 kb/s
Writing application         : VirtualDubMod 1.5.10.2 (build 2542/release)
Writing library             : VirtualDubMod build 2542/release

Video
ID                          : 0
Format                      : MPEG-4 Visual
Format profile              : Advanced [email protected]
Format settings             : BVOP1
Format settings, BVOP       : 1
Format settings, QPel       : No
Format settings, GMC        : No warppoints
Format settings, Matrix     : Default (H.263)
Muxing mode                 : Packed bitstream
Codec ID                    : XVID
Codec ID/Hint               : XviD
Duration                    : 1 h 43 min
Bit rate                    : 1 597 kb/s
Width                       : 720 pixels
Height                      : 302 pixels
Display aspect ratio        : 2.40:1
Frame rate                  : 23.976 (24000/1001) FPS
Color space                 : YUV
Chroma subsampling          : 4:2:0
Bit depth                   : 8 bits
Scan type                   : Progressive
Compression mode            : Lossy
Bits/(Pixel*Frame)          : 0.306
Stream size                 : 1.15 GiB (78%)
Writing library             : XviD 64

Audio
ID                          : 1
Format                      : AC-3
Format/Info                 : Audio Coding 3
Commercial name             : Dolby Digital
Codec ID                    : 2000
Duration                    : 1 h 43 min
Bit rate mode               : Constant
Bit rate                    : 448 kb/s
Channel(s)                  : 6 channels
Channel layout              : L R C LFE Ls Rs
Sampling rate               : 48.0 kHz
Frame rate                  : 31.250 FPS (1536 SPF)
Bit depth                   : 16 bits
Compression mode            : Lossy
Stream size                 : 331 MiB (22%)
Alignment                   : Split across interleaves
Interleave, duration        : 64  ms (1.53 video frames)
Interleave, preload duratio : 500  ms
Service kind                : Complete Main


qO4Dexcl.png

Hidden Content
You'll be able to see the hidden content once you reply to this topic.

Share this post


Link to post
Share on other sites

Create an account or sign in to comment

You need to be a member in order to leave a comment

Create an account

Sign up for a new account in our community. It's easy!

Register a new account

Sign in

Already have an account? Sign in here.

Sign In Now
Sign in to follow this