loufjohn

ΕΡΤ WEBRip AVI ΕΝΣΩΜΑΤΩΜΕΝΟΙ ΕΛΛΗΝΙΚΟΙ ΥΠΟΤΙΤΛΟΙ ΕΩΣ 02

Recommended Posts

loufjohn

 

MARS-ΠΛΑΝΗΤΗΣ ΑΡΗΣ (2016-) ΕΡΤ WEBRip AVI ΕΝΣΩΜΑΤΩΜΕΝΟΙ ΕΛΛΗΝΙΚΟΙ ΥΠΟΤΙΤΛΟΙ

oxAZTOrl.jpg

 

IaXZX9E.png


Σειρά ντοκιμαντέρ βασισμένη στο βιβλίο του Στέφαν Πέτρανεκ με τίτλο: «Πώς θα ζήσουμε στον Άρη»
Η σειρά ντοκιμαντέρ με τίτλο Mars/Άρης, είναι μια επική, συναρπαστική σειρά, που στόχο έχει να πυροδοτήσει τη φαντασία των θεατών σε όλον τον κόσμο, καθώς αφηγείται την ιστορία της δημιουργίας ζωής στον Κόκκινο Πλανήτη,
μια προοπτική συναρπαστική που κερδίζει σιγά σιγά έδαφος.
Η σειρά διαθέτει έναν μοναδικό συνδυασμό εικαστικών δρώμενων και διακριτικών οπτικών εφέ που διασταυρώνονται με το κυρίως ντοκιμαντέρ μαζί με συνεντεύξεις σύγχρονων επιστημόνων που πρωτοστατούν στην έρευνα
και την ανάπτυξη της διαστημικής τεχνολογίας.
Η σειρά αποκωδικοποιεί ό,τι κάνουν οι εγκέφαλοι της εξερεύνησης του διαστήματος σήμερα και δίνει σάρκα και οστά στον κόσμο που δημιουργούν, καθώς φέρνουν σε πέρας το μεγαλύτερο κατόρθωμα της ανθρωπότητας,
το διαπλανητικό ταξίδι και τον αποικισμό.

Σκηνοθεσία: Εβεράρντο Γκάουτ
Μουσική : Nικ Κέϊβ και Γουώρεν Έλις
Παραγωγή: National Geographic,ΗΠΑ

6KTXyhc.png

k9xkBFul.jpg

sNfCVWD.png

 

   General
      Complete name :MARS.EP.01.avi
      Format : AVI
      Format/Info : Audio Video Interleave
      File size : 1.33 GiB
      Duration : 47 min 5 s
      Overall bit rate : 4 035 kb/s
   Video #0
      ID : 0
      Format : AVC
      Format/Info : Advanced Video Codec
      Format profile : [email protected]
      Format settings : 1 Ref Frames
      Format settings, CABAC : No
      Format settings, ReFrames : 1 frame
      Codec ID : H264
      Duration : 47 min 5 s
      Bit rate : 3 893 kb/s
      Width : 864 pixels
      Height : 480 pixels
      Display aspect ratio : 16:9
      Frame rate : 25.000 FPS
      Color space : YUV
      Chroma subsampling : 4:2:0
      Bit depth : 8 bits
      Scan type : Progressive
      Bits/(Pixel*Frame) : 0.376
      Stream size : 1.28 GiB (96%)
     
   Audio #1
      ID : 1
      Format : MPEG Audio
      Format version : Version 1
      Format profile : Layer 3
      Codec ID : 55
      Codec ID/Hint : MP3
      Duration : 47 min 5 s
      Bit rate mode : Constant
      Bit rate : 128 kb/s
      Channel(s) : 2 channels
      Sampling rate : 48.0 kHz
      Compression mode : Lossy
      Stream size : 43.1 MiB (3%)
      Alignment : Aligned on interleaves
      Interleave, duration : 24  ms (0.60 video frame)     
      
fxZhAEdl.png


 
2V9nbDH.png

eKydSyt.jpg


zPAQxlN.png

 

A3VtJrt.png

 

Hidden Content
You'll be able to see the hidden content once you reply to this topic.

 

Edited by loufjohn

Share this post


Link to post
Share on other sites

Create an account or sign in to comment

You need to be a member in order to leave a comment

Create an account

Sign up for a new account in our community. It's easy!

Register a new account

Sign in

Already have an account? Sign in here.

Sign In Now