Jump to content
Sign in to follow this  
POPIKOSTAS

κινουμένων σχεδίων ABOMINABLE (2019) 1080p 3D BluRay Half-SBS x264-FGT ΜΕΤΑΓΛΩΤΙΣΜΕΝΟ

Recommended Posts

POPIKOSTAS

J1h47quh.jpg

ABOMINABLE (2019) 1080p 3D BluRay Half-SBS x264-FGT ΜΕΤΑΓΛΩΤΙΣΜΕΝΟ

5PEL7UUh.jpg

ΠΛΗΡΟΦΟΡΙΕΣ

Είδος ταινίας: Animation | Adventure
Βαθμολογία: 7.0/10 (7989)
Σκηνοθεσία: Jill Culton, Todd Wilderman
Σενάριο: Jill Culton
Ηθοποιοί: Albert Tsai (as Peng), Chloe Bennet (as Yi), Sarah Paulson (as Dr. Zara), Eddie Izzard (as Burnish), Tenzing Norgay Trainor (as Jin)
Πρεμιέρα (US): 27/09/19
Πρεμιέρα (GR): 24/10/19
Χώρα παραγωγής: China | USA
Με τις φωνές των: Μαίρης Συνατσάκη, Ίαν Στρατή, Γιώργου Κωνσταντίνου, Δημήτρη Ουγγαρέζου

ΥΠΟΘΕΣΗ

Η μεγάλη συμπαραγωγή των στούντιο της Dreamworks και των Pearl Studio Γέτι ο Χιονάνθρωπος των Ιμαλαΐων θα ταξιδεύσει το κοινό σε μια επική περιπέτεια, από τους δρόμους της Σαγκάη μέχρι τις φανταστικές χιονισμένες κορυφές των Ιμαλαΐων!
Όταν η έφηβη Γι (Η Μαίρη Συνατσάκη) συναντάει ένα νεαρό Γέτι στην ταράτσα του διαμερίσματός της στην Σαγκάη, μια φιλία ξεκινάει και μαζί με τους ατίθασους και άτακτους φίλους της Τζιν (ο Ίαν Στρατής) και Πενγκ, του δίνουν το όνομα «Έβερεστ» και ξεκινάνε μαζί του ένα μαγευτικό ταξίδι σε αναζήτηση της οικογένειάς του, στο πιο ψηλό σημείο της Γης.
Προκειμένου η ομάδα των τριών φίλων να καταφέρει να φτάσει στο σπίτι του Γέτι, πρέπει να καταφέρει να ξεφύγει από τον Μπέρνις (Ο Γιώργος Κωνσταντίνου), έναν εύπορο άντρα που θέλει να αιχμαλωτίσει το Γέτι, αλλά και από την επιστήμονα ζωολόγο Ζάρα.

EdwNBTlh.jpg

[video=youtube;9DjKhjeOLrE]https://www.youtube.com/watch?v=9DjKhjeOLrE[/video]

https://www.imdb.com/title/tt6324278/

ΤΕΧΝΙΚΑ ΧΑΡΑΚΤΗΡΙΣΤΙΚΑ


General
Complete name               : Abominable.2019.1080p.3D.BluRay.Half-SBS.x264-FGT+Greek.Audio.mkv
Format                      : Matroska
Format version              : Version 4
File size                   : 11.2 GiB
Duration                    : 1 h 37 min
Overall bit rate            : 16.5 Mb/s
Movie name                  : Abominable.2019.1080p.3D.BluRay.Half-SBS.x264-FGT / Quality Uploads ~~~ D3vil ~~~
Encoded date                : UTC 2020-02-07 07:52:57
Writing application         : mkvmerge v10.0.0 ('To Drown In You') 64bit
Writing library             : libebml v1.3.4 + libmatroska v1.4.5

Video
ID                          : 1
Format                      : AVC
Format/Info                 : Advanced Video Codec
Format profile              : [email protected]
Format settings             : CABAC / 3 Ref Frames
Format settings, CABAC      : Yes
Format settings, Reference  : 3 frames
Codec ID                    : V_MPEG4/ISO/AVC
Duration                    : 1 h 37 min
Bit rate                    : 15.5 Mb/s
Width                       : 1 920 pixels
Height                      : 1 080 pixels
Display aspect ratio        : 16:9
Frame rate mode             : Constant
Frame rate                  : 23.976 (24000/1001) FPS
Color space                 : YUV
Chroma subsampling          : 4:2:0
Bit depth                   : 8 bits
Scan type                   : Progressive
Bits/(Pixel*Frame)          : 0.312
Stream size                 : 10.5 GiB (93%)
Title                       : Abominable.2019.1080p.3D.BluRay.Half-SBS.x264-FGT
Writing library             : x264 core 148
Encoding settings           : cabac=1 / ref=3 / deblock=1:-1:-1 / analyse=0x3:0 / me=hex / subme=5 / psy=1 / psy_rd=1.00:0.00 / mixed_ref=0 / me_range=16 / chroma_me=1 / trellis=1 / 8x8dct=1 / cqm=0 / deadzone=21,11 / fast_pskip=0 / chroma_qp_offset=0 / threads=24 / lookahead_threads=6 / sliced_threads=0 / nr=0 / decimate=1 / interlaced=0 / bluray_compat=0 / constrained_intra=0 / bframes=2 / b_pyramid=0 / b_adapt=1 / b_bias=0 / direct=1 / weightb=0 / open_gop=0 / weightp=0 / keyint=24 / keyint_min=2 / scenecut=40 / intra_refresh=0 / rc=abr / mbtree=0 / bitrate=15500 / ratetol=1.0 / qcomp=0.60 / qpmin=0 / qpmax=69 / qpstep=4 / ip_ratio=1.40 / pb_ratio=1.30 / aq=1:1.00
Default                     : Yes
Forced                      : No
Color range                 : Limited
Color primaries             : BT.709
Transfer characteristics    : BT.709
Matrix coefficients         : BT.709

Audio #1
ID                          : 2
Format                      : AC-3
Format/Info                 : Audio Coding 3
Commercial name             : Dolby Digital
Codec ID                    : A_AC3
Duration                    : 1 h 37 min
Bit rate mode               : Constant
Bit rate                    : 640 kb/s
Channel(s)                  : 6 channels
Channel layout              : L R C LFE Ls Rs
Sampling rate               : 48.0 kHz
Frame rate                  : 31.250 FPS (1536 SPF)
Bit depth                   : 16 bits
Compression mode            : Lossy
Stream size                 : 445 MiB (4%)
Title                       : Abominable.2019.1080p.3D.BluRay.Half-SBS.x264-FGT
Language                    : Greek
Service kind                : Complete Main
Default                     : Yes
Forced                      : No

Audio #2
ID                          : 3
Format                      : AC-3
Format/Info                 : Audio Coding 3
Commercial name             : Dolby Digital
Codec ID                    : A_AC3
Duration                    : 1 h 37 min
Bit rate mode               : Constant
Bit rate                    : 448 kb/s
Channel(s)                  : 6 channels
Channel layout              : L R C LFE Ls Rs
Sampling rate               : 48.0 kHz
Frame rate                  : 31.250 FPS (1536 SPF)
Bit depth                   : 16 bits
Compression mode            : Lossy
Stream size                 : 311 MiB (3%)
Title                       : Abominable.2019.1080p.3D.BluRay.Half-SBS.x264-FGT
Language                    : English
Service kind                : Complete Main
Default                     : No
Forced                      : No


Βοηθήστε εντελώς ανέξοδα τους uploaders, ανανεώνοντας τακτικά την ip σας, με 1 απλή επανεκκίνηση του router.

qO4Dexcl.png

Hidden Content
You'll be able to see the hidden content once you reply to this topic.

Share this post


Link to post
Share on other sites

Create an account or sign in to comment

You need to be a member in order to leave a comment

Create an account

Sign up for a new account in our community. It's easy!

Register a new account

Sign in

Already have an account? Sign in here.

Sign In Now
Sign in to follow this  

×