Jump to content
loufjohn

VERSAILLES-ΒΕΡΣΑΛΛΙΕΣ (2015-2018) ALFA TV WEBRip AVI ΕΛΛΗΝΙΚΟΙ ΥΠΟΤΙΤΛΟΙ ΕΩΣ S03/10 FINAL

Recommended Posts

loufjohn

 

VERSAILLES-ΒΕΡΣΑΛΛΙΕΣ (2015-2018) ALFA TV WEBRip AVI ΕΛΛΗΝΙΚΟΙ ΥΠΟΤΙΤΛΟΙ


SoAIjcYl.png

 

Ιστορικό δράμα εποχής γαλλο-καναδικής παραγωγής 2015-2018

Τα σκάνδαλα ακολουθούν τις βασιλικές οικογένειες σαν νόμιμη κληρονομιά. Τα παλάτια κρύβουν στους διαδρόμους τους ένοχα μυστικά, απιστίες, ψέματα και δολοπλοκίες. Η πιο προκλητική, σέξι, εθιστική τηλεοπτική
σειρά για έναν… ροκ σταρ βασιλιά που «τα σπάει» για να ανέβει στο θρόνο,
έρχεται στον Alpha σε Α’ Τηλεοπτική Προβολή.
Ο πιο εμβληματικός βασιλιάς της Γαλλίας, ο Λουδοβίκος 14ος επονομαζόμενος και «Βασιλιάς Ήλιος», προκειμένου να «επιβιώσει» μετά το θάνατο της μητέρας του, πρέπει να νικήσει τους ευγενείς και να χτίσει μια νέα
βάση κάπου έξω από το Παρίσι. Σε ένα μικρό χωριό με το όνομα «Βερσαλλίες».
Η ανασφάλεια του τον οδηγεί να χτίσει το μεγαλύτερο παλάτι του κόσμου εκείνης της εποχής.
Αποκτά πολλά παιδιά από τις πολυάριθμες ερωμένες του, ενώ η σχέση αγάπης-μίσους με τον μικρότερο αδελφό του, Φίλιππο της Ορλεάνης, είναι καταλυτική.  
Ο αδερφός του είναι ένας εξίσου ιδιόρρυθμος άντρας και τρομερός πολεμιστής, τον οποίο ως παιδί η μητέρα τους συνήθιζε να ντύνει με γυναικεία ρούχα. Έχει στο ενεργητικό του εραστές, ερωμένες και δύο γάμους
με πολλά παιδιά, ενώ επηρεάζει τις αποφάσεις του Λουδοβίκου, όσο κανείς άλλος.
Ο απολυταρχικός τρόπος διακυβέρνησης του Λουδοβίκου θα οδηγήσει μερικές δεκαετίες αργότερα στη Γαλλική Επανάσταση, που θα αλλάξει ριζικά τον ρου της παγκόσμιας ιστορίας!
Η σειρά «Βερσαλλίες», έρχεται στον Alpha για να καθηλώσει με τις ίντριγκες, τα πάθη, τα παιχνίδια εξουσίας και τους παράνομους έρωτες που ξεφεύγουν από κάθε έλεγχο.
Με γυρίσματα στο παλάτι των Βερσαλλιών, αλλά και στα πιο εντυπωσιακά κάστρα της Γαλλίας- πολυτελείς ενδυμασίες εποχής και λεπτομερή σκηνικό σχεδιασμό, ο προϋπολογισμός της ξεπερνά τα 30 εκατομμύρια ευρώ.
Μεταξύ άλλων, έχει προβληθεί με μεγάλη επιτυχία στη Γαλλία, τον Καναδά, τις Η.Π.Α. και στη Μεγάλη Βρετανία.
Στοιχειωμένος από τραυματικές αναμνήσεις της παιδικής του ηλικίας, αλλά και το άδοξο τέλος του πατέρα του, ο βασιλιάς της Γαλλίας, Λουδοβίκος 14ος, είναι πια 28 ετών και έτοιμος να αναλάβει αποκλειστικά τον έλεγχο του βασιλείου.
Αποφασίζει να δημιουργήσει το μεγαλύτερο και πιο εντυπωσιακό παλάτι της Ευρώπης, τις Βερσαλλίες, στα περίχωρα του Παρισιού. Όλοι οι ευγενείς και η αριστοκρατία προσδοκούν μια θέση μέσα στον νέο γαλλικό ναό της εξουσίας, α
λλά και την εύνοια του άντρα που φιλοδοξεί να κατακτήσει όλη την Ευρώπη. Δεν υποψιάζονται, όμως, ότι σκοπός του Λουδοβίκου είναι να τους έχει όλους συγκεντρωμένους εκεί, ακριβώς για να μπορεί να τους ελέγχει.
Ένας από τους βασικούς του στόχους είναι ο νεότερος αδελφός του, Φίλιππος, ένας ιδιόρρυθμος δανδής και τρομερός πολεμιστής με μεγάλη επιρροή. Δεν είναι όμως αυτός ο μόνος στόχος του. Καθώς οι εργασίες στο αρχιτεκτόνημα
με τους μεγαλοπρεπείς κήπους βρίσκονται σε εξέλιξη, δούκισσες και λόρδοι κατεργάζονται υπογείως τα μαχαίρια και τα δηλητήρια που θα τους φέρουν πιο κοντά στο θρόνο. Το πιο ισχυρό όπλο, ωστόσο,
αποδεικνύεται η ερωτική αποπλάνηση – πιο αποτελεσματική από κάθε ίντριγκα και συνομωσία.
Καθώς, η βασιλική αυλή μετατρέπεται σε ένα πεδίο ερωτικών μαχών, η βασίλισσα Μαρία Θηρεσία πασχίζει να προστατέψει το γάμο της από το πλήθος των υποψήφιων ερωμένων που εποφθαλμιούν την κρεβατοκάμαρα του Λουδοβίκου.
Θα καταφέρει, άραγε, να ξανακερδίσει την καρδιά του άντρα της από την πιο ισχυρή ερωμένη του, την κόρη του βασιλιά της Αγγλίας;
Καλωσορίσατε στον κόσμο της εξουσίας και της προδοσίας, του πόθου και της ματαιοδοξίας. Καλωσορίσατε στις Βερσαλλίες!

Δημιουργοί: Σάιμον Μίρρεν, Ντέιβιντ Γουόλστενκροφτ

Ηθοποιοί: Τζορτζ Μπλάγκντεν, Αλεξάντερ Βλάχος, Τάιφ Ράνιαν, Στιούαρτ Μπόουμαν, Αμίρα Καζάρ, Έβαν Γουίλιαμς, Νοεμί Σμιτ, Άννα Μπρούστερ, Σάρα Γουίντερ

 


6KTXyhc.png

2VHHvVKl.jpg

sNfCVWD.png


   General
      Complete name :VERSAILLES.S01.EP.01.avi
      Format : AVI
      Format/Info : Audio Video Interleave
      File size : 1.10 GiB
      Duration : 57 min 46 s
      Overall bit rate : 2 722 kb/s
   Video #0
      ID : 0
      Format : AVC
      Format/Info : Advanced Video Codec
      Format profile : [email protected]
      Format settings : 1 Ref Frames
      Format settings, CABAC : No
      Format settings, ReFrames : 1 frame
      Codec ID : H264
      Duration : 57 min 46 s
      Bit rate : 2 580 kb/s
      Width : 1 280 pixels
      Height : 720 pixels
      Display aspect ratio : 16:9
      Frame rate : 25.000 FPS
      Color space : YUV
      Chroma subsampling : 4:2:0
      Bit depth : 8 bits
      Scan type : Progressive
      Bits/(Pixel*Frame) : 0.112
      Stream size : 1.04 GiB (95%)
    
   Audio #1
      ID : 1
      Format : MPEG Audio
      Format version : Version 1
      Format profile : Layer 3
      Codec ID : 55
      Codec ID/Hint : MP3
      Duration : 57 min 46 s
      Bit rate mode : Constant
      Bit rate : 128 kb/s
      Channel(s) : 2 channels
      Sampling rate : 48.0 kHz
      Compression mode : Lossy
      Stream size : 52.9 MiB (5%)
      Alignment : Aligned on interleaves
      Interleave, duration : 24  ms (0.60 video frame)
         
      
      
fxZhAEdl.png


 
2V9nbDH.png

eKydSyt.jpg


zPAQxlN.png

 

A3VtJrt.png

Hidden Content
You'll be able to see the hidden content once you reply to this topic.

 

Edited by loufjohn

Share this post


Link to post
Share on other sites
loufjohn

ΑΝΕΒΗΚΕ ΕΩΣ 02

Share this post


Link to post
Share on other sites
loufjohn

ΑΝΕΒΗΚΕ ΕΩΣ 03

Share this post


Link to post
Share on other sites
mitsos

ευχαριστω

Share this post


Link to post
Share on other sites
loufjohn

ΑΝΕΒΗΚΕ ΕΩΣ 04

Share this post


Link to post
Share on other sites
loufjohn

ΑΝΕΒΗΚΕ ΕΩΣ 05

Share this post


Link to post
Share on other sites
loufjohn

ΑΝΕΒΗΚΕ ΕΩΣ 06

Share this post


Link to post
Share on other sites
loufjohn

ΑΝΕΒΗΚΕ ΕΩΣ 08

Share this post


Link to post
Share on other sites
loufjohn

ΑΝΕΒΗΚΕ ΕΩΣ 09

Share this post


Link to post
Share on other sites

Create an account or sign in to comment

You need to be a member in order to leave a comment

Create an account

Sign up for a new account in our community. It's easy!

Register a new account

Sign in

Already have an account? Sign in here.

Sign In Now

×