Sign in to follow this  
ScooterMan

δράσης MIDWAY (2019) 720p BRRip XViD AC3-XVID | ΕΝΣΩΜΑΤΩΜΕΝΟΙ ΥΠΟΤΙΤΛΟΙ

Recommended Posts

ScooterMan


WSlEm6m.jpg


 ★★ Πληροφορίες Ταινίας: ★★  

Ελληνικός Τίτλος: Η Ναυμαχία του Μίντγουεϊ 
Είδος Ταινίας: Action, Drama, History 
Σκηνοθέτης: Roland Emmerich
Σεναριογράφος: Wes Tooke
Ηθοποιοί: Ed Skrein, Patrick Wilson, Woody Harrelson
Πρεμιέρα: 12 December 2019 (Greece)
Μετάφραση: Mikemyk

IMDB: https://www.imdb.com/title/tt6924650/


★★ ΥπόΘεση Ταινίας: ★★  

Η Ναυμαχία του Μίντγουεϊ εξιστορεί μία από τις πιο φημισμένες μάχες μεταξύ του αμερικανικού και ιαπωνικού στόλου, που έδωσε στις αμερικανικές δυνάμεις το προβάδισμα στο μέτωπο του Ειρηνικού στη διάρκεια του Β' Παγκοσμίου Πολέμου. Η ταινία, βασισμένη σε πραγματικά γεγονότα, αφηγείται την ιστορία των αξιωματικών και των στρατιωτών, που χρησιμοποίησαν το ένστικτο τους, το σθένος τους και τον ηρωισμό τους για να νικήσουν τον εχθρό, παρά τις αντίξοες συνθήκες.


 ★★ Τεχνικά Χαρακτηριστικά:★★  

General
Format                      : AVI
Format/Info                 : Audio Video Interleave
Format profile              : OpenDML
File size                   : 4.30 GiB
Duration                    : 2 h 18 min
Overall bit rate            : 4 447 kb/s
Writing library             : VirtualDub build 35491/release

Video
ID                          : 0
Format                      : MPEG-4 Visual
Format settings, BVOP       : No
Format settings, QPel       : No
Format settings, GMC        : No warppoints
Format settings, Matrix     : Default (H.263)
Codec ID                    : DX50
Codec ID/Hint               : DivX 5
Duration                    : 2 h 18 min
Bit rate                    : 3 797 kb/s
Nominal bit rate            : 9 708 kb/s
Width                       : 1 280 pixels
Height                      : 536 pixels
Display aspect ratio        : 2.40:1
Frame rate                  : 23.976 (24000/1001) FPS
Color space                 : YUV
Chroma subsampling          : 4:2:0
Bit depth                   : 8 bits
Scan type                   : Progressive
Compression mode            : Lossy
Bits/(Pixel*Frame)          : 0.231
Stream size                 : 3.67 GiB (85%)
Writing library             : DivX 6.8.5 (UTC 2009-08-20)

Audio
ID                          : 1
Format                      : AC-3
Format/Info                 : Audio Coding 3
Commercial name             : Dolby Digital
Codec ID                    : 2000
Duration                    : 2 h 18 min
Bit rate mode               : Constant
Bit rate                    : 640 kb/s
Channel(s)                  : 6 channels
Channel layout              : L R C LFE Ls Rs
Sampling rate               : 48.0 kHz
Frame rate                  : 31.250 FPS (1536 SPF)
Bit depth                   : 16 bits
Compression mode            : Lossy
Stream size                 : 634 MiB (14%)
Alignment                   : Aligned on interleaves
Interleave, duration        : 42  ms (1.00 video frame)
Interleave, preload duratio : 512  ms
Service kind                : Complete Main



★★ EasyBytez ★★
Link For Free Users

Hidden Content
You'll be able to see the hidden content once you reply to this topic.

Share this post


Link to post
Share on other sites
Bigalice2019

❤️ 

 

Share this post


Link to post
Share on other sites
Superflygeorge

thanks

Share this post


Link to post
Share on other sites

Create an account or sign in to comment

You need to be a member in order to leave a comment

Create an account

Sign up for a new account in our community. It's easy!

Register a new account

Sign in

Already have an account? Sign in here.

Sign In Now
Sign in to follow this