Sign in to follow this  
ScooterMan

θρίλερ 7 DAYS IN ENTEBBE (2018) 720p BluRay x264-GECKOS | ΞΕΧΩΡΙΣΤΟΙ ΥΠΟΤΙΤΛΟΙ

Recommended Posts

ScooterMan

kgiFz5Y.gif

 

 ★★ Πληροφορίες Ταινίας: ★★  

Ελληνικός Τίτλος: 7 Μέρες στο Έντεμπε
Είδος Ταινίας: Crime, Drama, History
Σκηνοθέτης: Jose Padilha
Σεναριογράφος: Gregory Burke (screenplay by)
Ηθοποιοί: Rosamund Pike, Daniel Bruhl, Kamil Lemieszewski
Πρεμιέρα: July 2018 (Greece)
Μετάφραση: KastriSubs

IMDB: https://www.imdb.com/title/tt5466186/

 

★★ ΥπόΘεση Ταινίας: ★★  

Η ταινία εμπνέεται από τα αληθινά γεγονότα της αεροπειρατείας του 1976 κατά την πτήση της Air France από το Τελ Αβίβ στο Παρίσι, κατά την οποία επιχειρήθηκε μια τολμηρή αποστολή διάσωσης.

 

 ★★ Τεχνικά Χαρακτηριστικά:★★  

 

General
Format                      : Matroska
Format version              : Version 4
File size                   : 5.48 GiB
Duration                    : 1 h 46 min
Overall bit rate            : 7 341 kb/s
Encoded date                : UTC 2020-02-02 16:37:56
Writing application         : mkvmerge v10.0.0 ('To Drown In You') 64bit
Writing library             : libebml v1.3.4 + libmatroska v1.4.5

Video
ID                          : 1
Format                      : AVC
Format/Info                 : Advanced Video Codec
Format profile              : [email protected]
Format settings             : CABAC / 5 Ref Frames
Format settings, CABAC      : Yes
Format settings, ReFrames   : 5 frames
Codec ID                    : V_MPEG4/ISO/AVC
Duration                    : 1 h 46 min
Bit rate                    : 5 801 kb/s
Width                       : 1 280 pixels
Height                      : 536 pixels
Display aspect ratio        : 2.40:1
Frame rate mode             : Constant
Frame rate                  : 24.000 FPS
Original frame rate         : 23.976 (24000/1001) FPS
Color space                 : YUV
Chroma subsampling          : 4:2:0
Bit depth                   : 8 bits
Scan type                   : Progressive
Bits/(Pixel*Frame)          : 0.352
Stream size                 : 4.33 GiB (79%)
Writing library             : x264 core 155 r2901 7d0ff22
Encoding settings           : cabac=1 / ref=5 / deblock=1:-3:-3 / analyse=0x3:0x133 / me=umh / subme=8 / psy=1 / psy_rd=1.00:0.00 / mixed_ref=1 / me_range=16 / chroma_me=1 / trellis=1 / 8x8dct=1 / cqm=0 / deadzone=21,11 / fast_pskip=0 / chroma_qp_offset=-2 / threads=17 / lookahead_threads=2 / sliced_threads=0 / nr=0 / decimate=1 / interlaced=0 / bluray_compat=0 / constrained_intra=0 / bframes=3 / b_pyramid=2 / b_adapt=1 / b_bias=0 / direct=3 / weightb=1 / open_gop=0 / weightp=2 / keyint=250 / keyint_min=23 / scenecut=40 / intra_refresh=0 / rc_lookahead=50 / rc=2pass / mbtree=1 / bitrate=5801 / ratetol=1.0 / qcomp=0.60 / qpmin=0 / qpmax=69 / qpstep=4 / cplxblur=20.0 / qblur=0.5 / vbv_maxrate=62500 / vbv_bufsize=78125 / nal_hrd=none / filler=0 / ip_ratio=1.40 / aq=1:1.00
Language                    : English
Default                     : Yes
Forced                      : No

Audio
ID                          : 2
Format                      : DTS
Format/Info                 : Digital Theater Systems
Codec ID                    : A_DTS
Duration                    : 1 h 46 min
Bit rate mode               : Constant
Bit rate                    : 1 536 kb/s
Channel(s)                  : 6 channels
Channel layout              : C L R Ls Rs LFE
Sampling rate               : 48.0 kHz
Frame rate                  : 93.750 FPS (512 SPF)
Bit depth                   : 24 bits
Compression mode            : Lossy
Stream size                 : 1.15 GiB (21%)
Default                     : Yes
Forced                      : No

 

3s48sfX.jpg

 

 

★★ EasyBytez ★★
Link For Free Users

Για να κατεβάζεις αρχεία μεγέθους έως 510 ΜΒ κάντε απλά μια εγγραφή!!
Αγοράζετε Λογαριασμό ή κάνετε Ανανέωση τον ήδη υπάρχων λογαριασμό που έχετε!!
Μπορείτε να κατεβάζετε από 5 Filehost σαν Premium User !!!!

Hidden Content
You'll be able to see the hidden content once you reply to this topic.

12Plix2.gif

 

Edited by ScooterMan

Share this post


Link to post
Share on other sites
tarpley79

euxaristo

Share this post


Link to post
Share on other sites

Create an account or sign in to comment

You need to be a member in order to leave a comment

Create an account

Sign up for a new account in our community. It's easy!

Register a new account

Sign in

Already have an account? Sign in here.

Sign In Now
Sign in to follow this