loufjohn

ΣΥΝΩΜΟΣΙΑ ΤΗΣ ΣΙΩΠΗΣ-CONSPIRACY OF SILENCE (2018) ΕΡΤ WEBRip AVI ΕΝΣΩΜΑΤΩΜΕΝΟΙ ΥΠΟΤΙΤΛΟΙ ΕΩΣ 07

Recommended Posts

loufjohn

 

ΣΥΝΩΜΟΣΙΑ ΤΗΣ ΣΙΩΠΗΣ-CONSPIRACY OF SILENCE (2018) ΕΡΤ WEBRip AVI ΕΝΣΩΜΑΤΩΜΕΝΟΙ ΥΠΟΤΙΤΛΟΙ


Bdb4r7ol.jpg

 

IaXZX9E.png

 

Σ’ αυτή τη νέα συγκλονιστική αστυνομική σειρά-θρίλερ, ένας έμπορος όπλων, ο Ρόμπερτ Κάστελ, έχει περάσει 30 ολόκληρα χρόνια αυτοεξόριστος, από τη στιγμή που θεωρήθηκε νεκρός και κατάφερε
να ξεφύγει από το διεφθαρμένο δίκτυο εμπορίου όπλων στη Σουηδία.
Επιστρέφει στη Σουηδία και οργανώνει ολόκληρη εκστρατεία εκδίκησης εναντίον του ανθρώπου –και της επιχείρησης– που του πήρε τόσα πολλά και προσπάθησε να τον σκοτώσει.
Τη δίψα του για εκδίκηση όμως, σταματά μια σοκαριστική αποκάλυψη: έχει μια κόρη -της οποίας την ύπαρξη αγνοούσε- και την οποία μεγάλωσε σαν παιδί του ο Άντερς Σπεθς, ο άνθρωπος τον οποίο ετοιμάζεται να σκοτώσει.
Με τη βοήθεια μιας νεαρής δημοσιογράφου, η οποία έχει τους δικούς της λόγους να θέλει να πολεμήσει το εμπόριο όπλων, αναγκάζεται να αλλάξει τακτική και τρόπο να πολεμήσει τον Άντερς Σπεθς.
Όταν όμως οι δυο τους αρχίζουν να ερευνούν τις διεφθαρμένες και άθλιες πρακτικές του εμπορίου όπλων, βρίσκονται σε μεγαλύτερο κίνδυνο παρά ποτέ.

Σκηνοθεσία: Σαρλότ Μπράντστρομ.

Παίζουν: Γιενς Χούλτεν, Γιοζεφίν Άσπλουντ, Βέρα Βιτάλι, Χαλίνα Ρέιν, Χένρικ Μέσταντ, Κρίστερ Χένρικσον, Νικ Φλέτσερ.

 

6KTXyhc.png

arJgGDtl.jpg

sNfCVWD.png


   General
      Complete name :Η ΣΥΝΩΜΟΣΙΑ ΤΗΣ ΣΙΩΠΗΣ\SIOPH.EP.01.avi
      Format : AVI
      Format/Info : Audio Video Interleave
      File size : 1.11 GiB
      Duration : 43 min 45 s
      Overall bit rate : 3 637 kb/s
   Video #0
      ID : 0
      Format : AVC
      Format/Info : Advanced Video Codec
      Format profile : [email protected]
      Format settings : 1 Ref Frames
      Format settings, CABAC : No
      Format settings, ReFrames : 1 frame
      Codec ID : H264
      Duration : 43 min 45 s
      Bit rate : 3 495 kb/s
      Width : 864 pixels
      Height : 480 pixels
      Display aspect ratio : 16:9
      Frame rate : 25.000 FPS
      Color space : YUV
      Chroma subsampling : 4:2:0
      Bit depth : 8 bits
      Scan type : Progressive
      Bits/(Pixel*Frame) : 0.337
      Stream size : 1.07 GiB (96%)
      
   Audio #1
      ID : 1
      Format : MPEG Audio
      Format version : Version 1
      Format profile : Layer 3
      Codec ID : 55
      Codec ID/Hint : MP3
      Duration : 43 min 45 s
      Bit rate mode : Constant
      Bit rate : 128 kb/s
      Channel(s) : 2 channels
      Sampling rate : 48.0 kHz
      Compression mode : Lossy
      Stream size : 40.1 MiB (4%)
      Alignment : Aligned on interleaves
      Interleave, duration : 24  ms (0.60 video frame)
     
      
      
fxZhAEdl.png


 
2V9nbDH.png

eKydSyt.jpg


zPAQxlN.png

 

A3VtJrt.png

Hidden Content
You'll be able to see the hidden content once you reply to this topic.

 

 

Edited by loufjohn

Share this post


Link to post
Share on other sites
apostk

tttthhhaannkksssss

Share this post


Link to post
Share on other sites
jimapos

Ευχαριστω

 

Share this post


Link to post
Share on other sites
loufjohn

ΑΝΕΒΗΚΕ ΕΩΣ 02

Share this post


Link to post
Share on other sites
loufjohn

ΑΝΕΒΗΚΕ ΕΩΣ 03

Share this post


Link to post
Share on other sites
loufjohn

ΑΝΕΒΗΚΕ ΕΩΣ 04

Share this post


Link to post
Share on other sites
loufjohn

ΑΝΕΒΗΚΕ ΕΩΣ 05

Share this post


Link to post
Share on other sites
loufjohn

ΑΝΕΒΗΚΕ ΕΩΣ 06

Share this post


Link to post
Share on other sites
nickchef
Στις 3/2/2020 στις 7:48 ΠΜ, loufjohn είπε

 

ΣΥΝΩΜΟΣΙΑ ΤΗΣ ΣΙΩΠΗΣ-CONSPIRACY OF SILENCE (2018) ΕΡΤ WEBRip AVI ΕΝΣΩΜΑΤΩΜΕΝΟΙ ΥΠΟΤΙΤΛΟΙ


Bdb4r7ol.jpg

 

IaXZX9E.png

 

Σ’ αυτή τη νέα συγκλονιστική αστυνομική σειρά-θρίλερ, ένας έμπορος όπλων, ο Ρόμπερτ Κάστελ, έχει περάσει 30 ολόκληρα χρόνια αυτοεξόριστος, από τη στιγμή που θεωρήθηκε νεκρός και κατάφερε
να ξεφύγει από το διεφθαρμένο δίκτυο εμπορίου όπλων στη Σουηδία.
Επιστρέφει στη Σουηδία και οργανώνει ολόκληρη εκστρατεία εκδίκησης εναντίον του ανθρώπου –και της επιχείρησης– που του πήρε τόσα πολλά και προσπάθησε να τον σκοτώσει.
Τη δίψα του για εκδίκηση όμως, σταματά μια σοκαριστική αποκάλυψη: έχει μια κόρη -της οποίας την ύπαρξη αγνοούσε- και την οποία μεγάλωσε σαν παιδί του ο Άντερς Σπεθς, ο άνθρωπος τον οποίο ετοιμάζεται να σκοτώσει.
Με τη βοήθεια μιας νεαρής δημοσιογράφου, η οποία έχει τους δικούς της λόγους να θέλει να πολεμήσει το εμπόριο όπλων, αναγκάζεται να αλλάξει τακτική και τρόπο να πολεμήσει τον Άντερς Σπεθς.
Όταν όμως οι δυο τους αρχίζουν να ερευνούν τις διεφθαρμένες και άθλιες πρακτικές του εμπορίου όπλων, βρίσκονται σε μεγαλύτερο κίνδυνο παρά ποτέ.

Σκηνοθεσία: Σαρλότ Μπράντστρομ.

Παίζουν: Γιενς Χούλτεν, Γιοζεφίν Άσπλουντ, Βέρα Βιτάλι, Χαλίνα Ρέιν, Χένρικ Μέσταντ, Κρίστερ Χένρικσον, Νικ Φλέτσερ.

 

6KTXyhc.png

arJgGDtl.jpg

sNfCVWD.png


   General
      Complete name :Η ΣΥΝΩΜΟΣΙΑ ΤΗΣ ΣΙΩΠΗΣ\SIOPH.EP.01.avi
      Format : AVI
      Format/Info : Audio Video Interleave
      File size : 1.11 GiB
      Duration : 43 min 45 s
      Overall bit rate : 3 637 kb/s
   Video #0
      ID : 0
      Format : AVC
      Format/Info : Advanced Video Codec
      Format profile : [email protected]
      Format settings : 1 Ref Frames
      Format settings, CABAC : No
      Format settings, ReFrames : 1 frame
      Codec ID : H264
      Duration : 43 min 45 s
      Bit rate : 3 495 kb/s
      Width : 864 pixels
      Height : 480 pixels
      Display aspect ratio : 16:9
      Frame rate : 25.000 FPS
      Color space : YUV
      Chroma subsampling : 4:2:0
      Bit depth : 8 bits
      Scan type : Progressive
      Bits/(Pixel*Frame) : 0.337
      Stream size : 1.07 GiB (96%)
      
   Audio #1
      ID : 1
      Format : MPEG Audio
      Format version : Version 1
      Format profile : Layer 3
      Codec ID : 55
      Codec ID/Hint : MP3
      Duration : 43 min 45 s
      Bit rate mode : Constant
      Bit rate : 128 kb/s
      Channel(s) : 2 channels
      Sampling rate : 48.0 kHz
      Compression mode : Lossy
      Stream size : 40.1 MiB (4%)
      Alignment : Aligned on interleaves
      Interleave, duration : 24  ms (0.60 video frame)
     
      
      
fxZhAEdl.png


 
2V9nbDH.png

eKydSyt.jpg


zPAQxlN.png

 

A3VtJrt.png

 

Hidden Content
http://www.easybytez.com/9bfzh1x15t1u/SIOPH.EP.01.part1.rar
http://www.easybytez.com/lcl7efhl0h7r/SIOPH.EP.01.part2.rar
http://www.easybytez.com/eth16drm0onw/SIOPH.EP.01.part3.rar
http://www.easybytez.com/mgtwor3vz4i0/SIOPH.EP.01.part4.rar
http://www.easybytez.com/x7hlov6gf04y/SIOPH.EP.01.part5.rar

http://www.easybytez.com/fk1w4pfiggjc/SIOPH.EP.02.part1.rar
http://www.easybytez.com/wb7g5ycgjnnz/SIOPH.EP.02.part2.rar
http://www.easybytez.com/3pa8uoujms9w/SIOPH.EP.02.part3.rar
http://www.easybytez.com/d8uxxlpygl1x/SIOPH.EP.02.part4.rar
http://www.easybytez.com/4cwunjhy4v7w/SIOPH.EP.02.part5.rar
http://www.easybytez.com/daocjo92wdin/SIOPH.EP.02.part6.rar

http://www.easybytez.com/6qxja8sqyori/SIOPH.EP.03.part1.rar
http://www.easybytez.com/cj2hx0ho8t1e/SIOPH.EP.03.part2.rar
http://www.easybytez.com/jlfirubnilp8/SIOPH.EP.03.part3.rar
http://www.easybytez.com/iu401q5fl7co/SIOPH.EP.03.part4.rar
http://www.easybytez.com/h1di7llvuy1s/SIOPH.EP.03.part5.rar

http://www.easybytez.com/yqqt5xjtqx5t/SIOPH.EP.04.part1.rar
http://www.easybytez.com/hp0lzc2ugeyr/SIOPH.EP.04.part2.rar
http://www.easybytez.com/hdeo0fg8t9ux/SIOPH.EP.04.part3.rar
http://www.easybytez.com/t3m2r4qh3uc6/SIOPH.EP.04.part4.rar
http://www.easybytez.com/kdsiksfv8d67/SIOPH.EP.04.part5.rar

http://www.easybytez.com/xwz7ytx6uzp3/SIOPH.EP.05.part1.rar
http://www.easybytez.com/dhg201jpvtew/SIOPH.EP.05.part2.rar
http://www.easybytez.com/w58cc1v1hgv2/SIOPH.EP.05.part3.rar
http://www.easybytez.com/ujwmb6evlbwh/SIOPH.EP.05.part4.rar
http://www.easybytez.com/kw9jebyvcosq/SIOPH.EP.05.part5.rar

http://www.easybytez.com/0g68vparmzzb/SIOPH.EP.06.part1.rar
http://www.easybytez.com/a4nwth40em0c/SIOPH.EP.06.part2.rar
http://www.easybytez.com/cqa9dvfgv8wg/SIOPH.EP.06.part3.rar
http://www.easybytez.com/na41dtm3bjx7/SIOPH.EP.06.part4.rar
http://www.easybytez.com/sy0om9lf6913/SIOPH.EP.06.part5.rar





ΕΝΑ ΕΥΧΑΡΙΣΤΩ ΑΡΚΕΙ ΓΙΑ ΝΑ ΜΕ ΒΟΗΘΗΣΕΤΕ ΠΟΛΥ

  

 

thanks

 

 

 

Share this post


Link to post
Share on other sites

Create an account or sign in to comment

You need to be a member in order to leave a comment

Create an account

Sign up for a new account in our community. It's easy!

Register a new account

Sign in

Already have an account? Sign in here.

Sign In Now