Jump to content
loufjohn

δράσης MASTER CHEF 2020 WEBRip (STAR TV) ΕΩΣ 44

Recommended Posts

loufjohn

MASTER CHEF 2020 WEBRip (STAR TV) 

L2x0A5Fl.jpg


IaXZX9E.png


 Εκπομπή μαγειρικής με τους κορυφαίους σεφ Σωτήρη Κοντιζά, Πάνο Ιωαννίδη, Λεωνίδα Κουτσόπουλο.
Το MasterChef, ο μεγαλύτερος τηλεοπτικός διαγωνισμός μαγειρικής που προβάλλεται με μεγάλη επιτυχία σε περισσότερες από 40 χώρες, επιστρέφει στο Star με τον 3ο κύκλο,
για να αναδείξει τον επόμενο Έλληνα MasterChef!
Αυτή τη χρονιά οι τρεις κορυφαίοι σεφ Σωτήρης Κοντιζάς, Πάνος Ιωαννίδης, Λεωνίδας Κουτσόπουλος, δεν ζητούν την τελειότητα, την απαιτούν! Το πάθος, το ταλέντο,
η φαντασία, δεν αρκούν! Οι κριτές θέλουν να δουν στις δημιουργίες των διαγωνιζόμενων πρωτοτυπία,
τεχνική, ξάφνιασμα γεύσεων, πιάτα φροντισμένα με αγάπη, δουλειά, υπομονή. Και κυρίως θέλουν να τους αφήσουν απλώς… με το στόμα ανοιχτό!
Ο διαγωνιζόμενος, που θα ξεπεράσει, όχι τους αντιπάλους του αλλά τον εαυτό του, θα είναι εκείνος, που θα αναδειχθεί νικητής και θα  κερδίσει, πέρα από τον τίτλο
του MasterChef  και το έπαθλο των 50.000 ευρώ!

 

6KTXyhc.png

raUNBWol.jpg


sNfCVWD.png


   General
      Complete name :MASTERCHEF.2020.EP.01.avi
      Format : AVI
      Format/Info : Audio Video Interleave
      Format profile : OpenDML
      File size : 2.11 GiB
      Duration : 2 h 20 min
      Overall bit rate : 2 144 kb/s
      Writing application : Lavf56.15.102
   Video #0
      ID : 0
      Format : AVC
      Format/Info : Advanced Video Codec
      Format profile : [email protected]
      Format settings : 2 Ref Frames
      Format settings, CABAC : No
      Format settings, ReFrames : 2 frames
      Codec ID : H264
      Duration : 2 h 20 min
      Bit rate : 2 000 kb/s
      Width : 1 280 pixels
      Height : 720 pixels
      Display aspect ratio : 16:9
      Frame rate mode : Variable
      Frame rate : 25.000 FPS
      Color space : YUV
      Chroma subsampling : 4:2:0
      Bit depth : 8 bits
      Scan type : Progressive
      Bits/(Pixel*Frame) : 0.087
      Stream size : 1.97 GiB (93%)
    
   Audio #1
      ID : 1
      Format : MPEG Audio
      Format version : Version 1
      Format profile : Layer 3
      Format settings : Joint stereo / MS Stereo
      Codec ID : 55
      Codec ID/Hint : MP3
      Duration : 2 h 20 min
      Bit rate mode : Constant
      Bit rate : 128 kb/s
      Channel(s) : 2 channels
      Sampling rate : 44.1 kHz
      Compression mode : Lossy
      Stream size : 129 MiB (6%)
      Alignment : Aligned on interleaves
      Interleave, duration : 26  ms (0.65 video frame)
      Interleave, preload duration : 26  ms
    
2V9nbDH.png

 


eKydSyt.jpg


zPAQxlN.png

  Βοηθήστε εντελώς ανέξοδα τους uploaders, ανανεώνοντας τακτικά την ip σας, με 1 απλή επανεκκίνηση του router.

A3VtJrt.png
                        

Hidden Content
You'll be able to see the hidden content once you reply to this topic.

                         
 

Edited by loufjohn

Share this post


Link to post
Share on other sites
loufjohn

ΑΝΕΒΗΚΕ ΕΩΣ 02

Share this post


Link to post
Share on other sites
loufjohn

ΑΝΕΒΗΚΕ ΕΩΣ 04

Share this post


Link to post
Share on other sites
loufjohn

ΑΝΕΒΗΚΕ ΕΩΣ 05

Share this post


Link to post
Share on other sites
loufjohn

ΑΝΕΒΗΚΕ ΕΩΣ 06

Share this post


Link to post
Share on other sites
loufjohn

ΑΝΕΒΗΚΕ ΝΕΟ ΕΠΕΙΣΟΔΙΟ

Share this post


Link to post
Share on other sites
soccinemodo

ευχαριστώ πολύ

Share this post


Link to post
Share on other sites
loufjohn

ΑΝΕΒΗΚΕ ΕΩΣ 08

Share this post


Link to post
Share on other sites
loufjohn

ΑΝΕΒΗΚΕ ΝΕΟ ΕΠΕΙΣΟΔΙΟ

Share this post


Link to post
Share on other sites

Create an account or sign in to comment

You need to be a member in order to leave a comment

Create an account

Sign up for a new account in our community. It's easy!

Register a new account

Sign in

Already have an account? Sign in here.

Sign In Now

×