Jump to content
loufjohn

DREAM THE FUTURE ΕΡΤ (2015-2017) ΝΤΟΚΙΜΑΝΤΕΡ WEBRip AVI ΕΝΣΩΜΑΤΩΜΕΝΟΙ ΥΠΟΤΙΤΛΟΙ ΕΩΣ 03

Recommended Posts

loufjohn

 

DREAM THE FUTURE ΕΡΤ (2015-2017) ΝΤΟΚΙΜΑΝΤΕΡ WEBRip AVI ΕΝΣΩΜΑΤΩΜΕΝΟΙ ΥΠΟΤΙΤΛΟΙ


Z6TSzTVl.jpg

 

IaXZX9E.png


Σειρά ντοκιμαντέρ 20 ωριαίων επεισοδίων (σεζόν 1 και 2), παραγωγής About Premium Content, 2017.
Πως θα είναι το μέλλον του ανθρώπου τα επόμενα χρόνια? Πως θα επηρεάζουν τη ζωή μας το 2050 οι καινούργιες έρευνες και ανακαλύψεις?

Το 2050 θα είμαστε σχεδόν 9 δισεκατομμύρια. Οι ανάγκες μας σε ενέργεια θα έχουν αυξηθεί κατά 75%. Τα ορυκτά καύσιμα
θα κοντεύουν να εξαντληθούν. Βλέπουμε πώς οι εναλλακτικές πηγές ενέργειας και ο έξυπνος συνδυασμός τους μπορούν να καλύψουν
τις ανάγκες μας, μειώνοντας ή και εξαλείφοντας
ταυτοχρόνως τις εκπομπές αερίων του θερμοκηπίου.

6KTXyhc.png

KuUFrPVl.jpg


sNfCVWD.png

   
   General
      Complete name :MELLON.EP.01.avi
      Format : AVI
      Format/Info : Audio Video Interleave
      File size : 1.30 GiB
      Duration : 50 min 29 s
      Overall bit rate : 3 677 kb/s
   Video #0
      ID : 0
      Format : AVC
      Format/Info : Advanced Video Codec
      Format profile : [email protected]
      Format settings : 1 Ref Frames
      Format settings, CABAC : No
      Format settings, ReFrames : 1 frame
      Codec ID : H264
      Duration : 50 min 29 s
      Bit rate : 3 531 kb/s
      Width : 1 280 pixels
      Height : 720 pixels
      Display aspect ratio : 16:9
      Frame rate : 50.000 FPS
      Color space : YUV
      Chroma subsampling : 4:2:0
      Bit depth : 8 bits
      Scan type : Progressive
      Bits/(Pixel*Frame) : 0.077
      Stream size : 1.25 GiB (96%)
      
   Audio #1
      ID : 1
      Format : MPEG Audio
      Format version : Version 1
      Format profile : Layer 3
      Codec ID : 55
      Codec ID/Hint : MP3
      Duration : 50 min 29 s
      Bit rate mode : Constant
      Bit rate : 128 kb/s
      Channel(s) : 2 channels
      Sampling rate : 44.1 kHz
      Compression mode : Lossy
      Stream size : 46.2 MiB (3%)
      Alignment : Aligned on interleaves
      Interleave, duration : 26  ms (1.31 video frame)

fxZhAEdl.png



2V9nbDH.png

 

eKydSyt.jpg


zPAQxlN.png

 

A3VtJrt.png

Hidden Content
You'll be able to see the hidden content once you reply to this topic.

 

Edited by loufjohn

Share this post


Link to post
Share on other sites
loufjohn

ΑΝΕΒΗΚΕ ΕΩΣ 02

Share this post


Link to post
Share on other sites
loufjohn

ΑΝΕΒΗΚΕ ΕΩΣ 03

Share this post


Link to post
Share on other sites

Create an account or sign in to comment

You need to be a member in order to leave a comment

Create an account

Sign up for a new account in our community. It's easy!

Register a new account

Sign in

Already have an account? Sign in here.

Sign In Now

×