Jump to content
Sign in to follow this  
POPIKOSTAS

δράμα DITTE MENNESKEBARN (1946) BRRip (Tove Maes, Karen Poulsen) | ΞΕΧΩΡΙΣΤΟΙ ΥΠΟΤΙΤΛΟΙ

Recommended Posts

POPIKOSTAS

YphUxpRh.jpg

DITTE MENNESKEBARN (1946) BRRip (Tove Maes, Karen Poulsen) | ΞΕΧΩΡΙΣΤΟΙ ΥΠΟΤΙΤΛΟΙ

Είδος Ταινίας: Δράμα
Έτος: 1946
Διάρκεια: 99 λεπτά
Σκηνοθεσία: Bjarne Henning-Jensen
Σενάριο: Martin Andersen Nexø, Bjarne Henning-Jensen
Πρωταγωνιστές: Tove Maes, Karen Poulsen, Rasmus Ottesen
Χρωματισμός Εικόνας: Ασπρόμαυρος
Χώρα Παραγωγής: Δανία
Γλώσσα: Δανέζικα
Ελληνικός Τίτλος: Το Παιδί του Ανθρώπου
Μετάφραση: zachs75

Η Ντίτε, που αποτελεί καρπό εξώγαμης σχέσης, εγκαταλείπεται από τη μητέρα της Σορίν σε βρεφική ηλικία. Την συντηρούν η γιαγιά της Μάρεν και ο παππούς της Σόρεν, πάμφτωχοι αμφότεροι. Ο Σόρεν, παρότι μεγάλης ηλικίας, αναγκάζεται να βγει πάλι στη θάλασσα για να δρέψει τους καρπούς της. Καταπονείται έντονα όμως, με αποτέλεσμα να μην αντέξει και να αποδημήσει εις Κύριον. Πλέον η Μάρεν είναι το μόνο στήριγμα της μικρής Ντίτε.
Η Ντίτε αισθάνεται άσχημα, νήπιο όντας και χωρίς να καταλαβαίνει τι γίνεται στον κόσμο, που δεν έχει πατέρα όπως τα άλλα παιδιά. Όταν εμφανίζεται ο Λαρς Πίτερ στο σπίτι τους και ανακοινώνει ότι θα παντρευτεί τη μητέρα της, η καρδιά της αγαλλιάζει. Μετακομίζει στο σπίτι τους και καθώς τα χρόνια περνούν, η Ντίτε γίνεται ουσιαστικά η μητέρα των 3 επόμενων παιδιών. Έφηβη πλέον, αρχίζει να νιώθει τα πρώτα σκιρτήματα, αλλά ένα φονικό θα έρθει να ταράξει τη ζωή της, για να επιβεβαιώσει το ρητό: «Όπου φτωχός κι η μοίρα του».

Η Δανία είναι η προτελευταία στάση του αφιερώματος «EuroMini» των λιγότερο γνωστών στον κινηματογράφο ευρωπαϊκών χωρών, με μία ταινία που αποτέλεσε τον ακρογωνιαίο λίθο του μεταπολεμικού σινεμά στη συγκεκριμένη χώρα. Μάλιστα, το Υπουργείο Πολιτισμού της Δανίας την έχει εντάξει στην πρώτη δεκάδα των καλύτερων ταινιών όλων των εποχών για τη χώρα.

Είναι βασισμένη στη νουβέλα του Martin Andersen Nexø, από τους μεγαλύτερους συγγραφείς του 20ου αιώνα για τη Δανία. Έλαβε μέρος σε πάμπολλα φεστιβάλ με ανάλογες διακρίσεις. Περιέχει όμως κάποιες ελάχιστες σκηνές γυμνού, οι πρώτες στην ιστορία του δανέζικου κινηματογράφου, με αποτέλεσμα να υποστεί μερική ή ολική λογοκρισία σε αρκετές χώρες.

WEymiZ0h.jpg

[video]https://www.youtube.com/watch?v=W568eT8Wb4s[/video]

https://www.imdb.com/title/tt0038482/

ΤΕΧΝΙΚΑ ΧΑΡΑΚΤΗΡΙΣΤΙΚΑ


General
Complete name               : Ditte Menneskebarn (1946).mkv
Format                      : Matroska
Format version              : Version 4
File size                   : 1.55 GiB
Duration                    : 1 h 42 min
Overall bit rate            : 2 158 kb/s
Encoded date                : UTC 2019-11-09 07:37:47
Writing application         : mkvmerge v39.0.0 ('In The Waiting Line') 32-bit
Writing library             : libebml v1.3.9 + libmatroska v1.5.2

Video
ID                          : 1
Format                      : AVC
Format/Info                 : Advanced Video Codec
Format profile              : [email protected]
Format settings             : CABAC / 8 Ref Frames
Format settings, CABAC      : Yes
Format settings, Reference  : 8 frames
Codec ID                    : V_MPEG4/ISO/AVC
Duration                    : 1 h 42 min
Bit rate                    : 1 900 kb/s
Width                       : 720 pixels
Height                      : 576 pixels
Display aspect ratio        : 4:3
Original display aspect rat : 4:3
Frame rate mode             : Constant
Frame rate                  : 24.000 FPS
Color space                 : YUV
Chroma subsampling          : 4:2:0
Bit depth                   : 8 bits
Scan type                   : Progressive
Bits/(Pixel*Frame)          : 0.191
Stream size                 : 1.37 GiB (88%)
Writing library             : x264 core 146 r2538 121396c
Encoding settings           : cabac=1 / ref=8 / deblock=1:-3:-3 / analyse=0x3:0x133 / me=umh / subme=9 / psy=1 / psy_rd=1.00:0.15 / mixed_ref=1 / me_range=28 / chroma_me=0 / trellis=2 / 8x8dct=1 / cqm=0 / deadzone=21,11 / fast_pskip=0 / chroma_qp_offset=-3 / threads=3 / lookahead_threads=1 / sliced_threads=0 / nr=0 / decimate=0 / interlaced=0 / bluray_compat=0 / constrained_intra=0 / bframes=16 / b_pyramid=2 / b_adapt=2 / b_bias=0 / direct=3 / weightb=1 / open_gop=0 / weightp=2 / keyint=240 / keyint_min=24 / scenecut=40 / intra_refresh=0 / rc_lookahead=100 / rc=2pass / mbtree=1 / bitrate=1900 / ratetol=3.0 / qcomp=0.60 / qpmin=0 / qpmax=69 / qpstep=4 / cplxblur=20.0 / qblur=0.5 / vbv_maxrate=17500 / vbv_bufsize=17500 / nal_hrd=none / filler=0 / ip_ratio=1.40 / aq=1:1.00
Language                    : English
Default                     : Yes
Forced                      : No

Audio
ID                          : 2
Format                      : AC-3
Format/Info                 : Audio Coding 3
Commercial name             : Dolby Digital
Codec ID                    : A_AC3
Duration                    : 1 h 42 min
Bit rate mode               : Constant
Bit rate                    : 256 kb/s
Channel(s)                  : 1 channel
Channel layout              : C
Sampling rate               : 48.0 kHz
Frame rate                  : 31.250 FPS (1536 SPF)
Bit depth                   : 16 bits
Compression mode            : Lossy
Stream size                 : 188 MiB (12%)
Service kind                : Complete Main
Default                     : Yes
Forced                      : No


qO4Dexcl.png

Hidden Content
You'll be able to see the hidden content once you reply to this topic.

Share this post


Link to post
Share on other sites
gery

thenks

Share this post


Link to post
Share on other sites
memosss

thanks

Share this post


Link to post
Share on other sites

Create an account or sign in to comment

You need to be a member in order to leave a comment

Create an account

Sign up for a new account in our community. It's easy!

Register a new account

Sign in

Already have an account? Sign in here.

Sign In Now
Sign in to follow this  

×