Jump to content
Sign in to follow this  
POPIKOSTAS

UP AND AWAY - ΤΟ ΜΑΓΙΚΟ ΧΑΛΙ (2018) DVDRip - ΜΕΤΑΓΛΩΤΤΙΣΜΕΝΟ

Recommended Posts

POPIKOSTAS

NG4Qfc2h.jpg

UP AND AWAY - ΤΟ ΜΑΓΙΚΟ ΧΑΛΙ (2018) DVDRip - ΜΕΤΑΓΛΩΤΤΙΣΜΕΝΟ

ΠΛΗΡΟΦΟΡΙΕΣ

Director: Karsten Kiilerich
Writers: Vicki Berlin (extra dialogue), Karsten Kiilerich
Stars: Vibeke Dueholm, Peter Frödin, Erik Holmey

ΥΠΟΘΕΣΗ

Ένα χωριατόπαιδο, η πιστή του γίδα, ένας άπληστος για εξουσία σουλτάνος, δύο πεινασμένοι αλιγάτορες, ένας αδίστακτος κακοποιός, ένα κορίτσι της πόλης, ένας αφηρημένος πωλητής χαλιών - και φυσικά, ένα ιπτάμενο χαλί – έχουν το ρόλο τους στις περιπέτειες του Χότζα. Είναι οι Χίλιες και Μία Νύχτες στη ζωή ενός χωρικού, ο οποίος κόντρα στις πιθανότητες, καταφέρνει να ταξιδέψει στον κόσμο, να νικήσει τους εχθρούς του, να ξεπεράσει τον φόβο του και τελικά να επιστρέψει στο σπίτι με ένα απροσδόκητο δώρο.

kIziwxth.jpg

[video]https://www.youtube.com/watch?v=GLxLWKRhr8c&feature=emb_logo[/video]

https://www.imdb.com/title/tt5848640/

ΤΕΧΝΙΚΑ ΧΑΡΑΚΤΗΡΙΣΤΙΚΑ


General
Complete name               : UP.AND.AWAY(2018)DVDRip.mkv
Format                      : Matroska
Format version              : Version 2
File size                   : 2.10 GiB
Duration                    : 1 h 17 min
Overall bit rate            : 3 871 kb/s
Movie name                  : UP_AND_AWAY.Title4
Encoded date                : UTC 2019-11-24 21:18:27
Writing application         : DVDFab 9.2.1.8
Writing library             : libebml v0.7.8 + libmatroska v0.8.1

Video
ID                          : 1
Format                      : AVC
Format/Info                 : Advanced Video Codec
Format profile              : [email protected]
Format settings             : CABAC / 2 Ref Frames
Format settings, CABAC      : Yes
Format settings, RefFrames  : 2 frames
Codec ID                    : V_MPEG4/ISO/AVC
Duration                    : 1 h 17 min
Bit rate                    : 3 418 kb/s
Width                       : 720 pixels
Height                      : 300 pixels
Display aspect ratio        : 2.40:1
Frame rate mode             : Constant
Frame rate                  : 25.000 FPS
Color space                 : YUV
Chroma subsampling          : 4:2:0
Bit depth                   : 8 bits
Scan type                   : Progressive
Bits/(Pixel*Frame)          : 0.633
Stream size                 : 1.82 GiB (86%)
Writing library             : x264 core 142
Encoding settings           : cabac=1 / ref=1 / deblock=1:-1:-1 / analyse=0x3:0 / me=hex / subme=5 / psy=0 / mixed_ref=0 / me_range=16 / chroma_me=1 / trellis=0 / 8x8dct=1 / cqm=0 / deadzone=21,11 / fast_pskip=1 / chroma_qp_offset=0 / threads=4 / lookahead_threads=1 / sliced_threads=0 / nr=0 / decimate=1 / interlaced=0 / bluray_compat=0 / constrained_intra=0 / bframes=2 / b_pyramid=0 / b_adapt=1 / b_bias=0 / direct=1 / weightb=1 / open_gop=0 / weightp=0 / keyint=24 / keyint_min=13 / scenecut=40 / intra_refresh=0 / rc=2pass / mbtree=0 / bitrate=3418 / ratetol=1.0 / qcomp=0.60 / qpmin=0 / qpmax=69 / qpstep=4 / cplxblur=20.0 / qblur=0.5 / ip_ratio=1.40 / pb_ratio=1.30 / aq=1:1.00
Default                     : Yes
Forced                      : No
Color range                 : Limited
Color primaries             : BT.601 NTSC
Transfer characteristics    : BT.709
Matrix coefficients         : BT.601

Audio
ID                          : 2
Format                      : AC-3
Format/Info                 : Audio Coding 3
Format settings, Endianness : Big
Codec ID                    : A_AC3
Duration                    : 1 h 17 min
Bit rate mode               : Constant
Bit rate                    : 448 kb/s
Channel(s)                  : 6 channels
Channel positions           : Front: L C R, Side: L R, LFE
Sampling rate               : 48.0 kHz
Frame rate                  : 31.250 FPS (1536 SPF)
Bit depth                   : 16 bits
Compression mode            : Lossy
Stream size                 : 249 MiB (12%)
Language                    : Greek
Service kind                : Complete Main
Default                     : Yes
Forced                      : No


1MFWSWwh.png

Hidden Content
You'll be able to see the hidden content once you reply to this topic.

  • Like 2

Share this post


Link to post
Share on other sites

Create an account or sign in to comment

You need to be a member in order to leave a comment

Create an account

Sign up for a new account in our community. It's easy!

Register a new account

Sign in

Already have an account? Sign in here.

Sign In Now
Sign in to follow this  

×