Jump to content
Sign in to follow this  
POPIKOSTAS

θρίλερ ASSASSINATION - ΥΠΟ ΣΤΕΝΗ ΠΡΟΣΤΑΣΙΑ (1987) BRRip 720p (Charles Bronson, Jill Ireland) | ΞΕΧΩΡΙΣΤΟΙ ΥΠΟΤΙΤΛΟΙ

Recommended Posts

POPIKOSTAS

Ovlbv4Oh.jpg

ASSASSINATION - ΥΠΟ ΣΤΕΝΗ ΠΡΟΣΤΑΣΙΑ (1987) BRRip 720p (Charles Bronson, Jill Ireland) | ΞΕΧΩΡΙΣΤΟΙ ΥΠΟΤΙΤΛΟΙ

2qG1DSUh.jpg

Director: Peter R. Hunt (as Peter Hunt)
Writer: Richard Sale
Stars: Charles Bronson, Jill Ireland, Stephen Elliott
Μετάφραση: stavrosaek

Ο Jay Killian (Charles Bronson) είναι ανώτερο μέλος της μυστικής υπηρεσίας.Όντας υψηλής εξειδίκευσης και ένας έμπειρος βετεράνος της υπηρεσίας αναλαμβανει τη προστασια της πρωτης Κυριας, μια γυναικας αλαζονικης που αντιτιθεται στη παρουσια του Κιλιαν.

mZz3wtyh.jpg

[video]https://www.youtube.com/watch?v=L9PuJl8GS0k[/video]

https://www.imdb.com/title/tt0092585/

ΤΕΧΝΙΚΑ ΧΑΡΑΚΤΗΡΙΣΤΙΚΑ


General
Complete name               : Assassination (1987).mp4
Format                      : Matroska
Format version              : Version 4
File size                   : 1.06 GiB
Duration                    : 1 h 28 min
Overall bit rate            : 1 726 kb/s
Encoded date                : UTC 2019-11-17 07:26:56
Writing application         : mkvmerge v38.0.0 ('The Silent Type') 32-bit
Writing library             : libebml v1.3.9 + libmatroska v1.5.2
FileExtension_Invalid       : mkv mk3d mka mks

Video
ID                          : 1
Format                      : AVC
Format/Info                 : Advanced Video Codec
Format profile              : [email protected]
Format settings             : CABAC / 4 Ref Frames
Format settings, CABAC      : Yes
Format settings, Reference  : 4 frames
Codec ID                    : V_MPEG4/ISO/AVC
Duration                    : 1 h 28 min
Bit rate                    : 1 500 kb/s
Width                       : 1 280 pixels
Height                      : 694 pixels
Display aspect ratio        : 1.85:1
Frame rate mode             : Constant
Frame rate                  : 23.976 (23976/1000) FPS
Color space                 : YUV
Chroma subsampling          : 4:2:0
Bit depth                   : 8 bits
Scan type                   : Progressive
Bits/(Pixel*Frame)          : 0.070
Stream size                 : 946 MiB (87%)
Writing library             : x264 core 152 r2851M ba24899
Encoding settings           : cabac=1 / ref=4 / deblock=1:-1:-1 / analyse=0x3:0x113 / me=umh / subme=9 / psy=1 / psy_rd=1.00:0.15 / mixed_ref=1 / me_range=24 / chroma_me=1 / trellis=2 / 8x8dct=1 / cqm=0 / deadzone=21,11 / fast_pskip=1 / chroma_qp_offset=-3 / threads=32 / lookahead_threads=4 / sliced_threads=0 / nr=0 / decimate=1 / interlaced=0 / bluray_compat=0 / constrained_intra=0 / bframes=3 / b_pyramid=2 / b_adapt=2 / b_bias=0 / direct=3 / weightb=1 / open_gop=0 / weightp=2 / keyint=250 / keyint_min=25 / scenecut=40 / intra_refresh=0 / rc_lookahead=50 / rc=2pass / mbtree=1 / bitrate=1500 / ratetol=1.0 / qcomp=0.60 / qpmin=0 / qpmax=69 / qpstep=4 / cplxblur=20.0 / qblur=0.5 / vbv_maxrate=31250 / vbv_bufsize=31250 / nal_hrd=none / filler=0 / ip_ratio=1.40 / aq=3:1.00
Default                     : Yes
Forced                      : No

Audio
ID                          : 2
Format                      : AAC LC
Format/Info                 : Advanced Audio Codec Low Complexity
Codec ID                    : A_AAC-2
Duration                    : 1 h 28 min
Bit rate                    : 224 kb/s
Channel(s)                  : 2 channels
Channel layout              : L R
Sampling rate               : 48.0 kHz
Frame rate                  : 46.875 FPS (1024 SPF)
Compression mode            : Lossy
Delay relative to video     : -43 ms
Stream size                 : 141 MiB (13%)
Language                    : English
Default                     : Yes
Forced                      : No

Text
ID                          : 3
Format                      : UTF-8
Codec ID                    : S_TEXT/UTF8
Codec ID/Info               : UTF-8 Plain Text
Duration                    : 1 h 27 min
Bit rate                    : 87 b/s
Count of elements           : 847
Stream size                 : 56.5 KiB (0%)
Default                     : Yes
Forced                      : No


qO4Dexcl.png

Hidden Content
You'll be able to see the hidden content once you reply to this topic.

  • Thanks 1

Share this post


Link to post
Share on other sites

Create an account or sign in to comment

You need to be a member in order to leave a comment

Create an account

Sign up for a new account in our community. It's easy!

Register a new account

Sign in

Already have an account? Sign in here.

Sign In Now
Sign in to follow this  

×