Jump to content
Sign in to follow this  
ScooterMan

κινουμένων σχεδίων THE QUEEN`S CORGI (2019) 720p BRRip XviD AC3-XVID | ΜΕΤΑΓΛΩΤΙΣΜΕΝΟ

Recommended Posts

ScooterMan


VbW7Nj9.jpg


 ★★ Πληροφορίες Ταινίας: ★★  

 
Ελληνικός Τίτλος: Corgi: Το Σκυλάκι της Βασίλισσας
Είδος Ταινίας: Animation, Comedy, Family
Σκηνοθέτης: Vincent Kesteloot, Ben Stassen
Σεναριογράφος: Rob Sprackling, Johnny Smith (as John R. Smith)
Ηθοποιοί: Rusty Shackleford, Jo Wyatt, Leo Barakat
Πρεμιέρα: 21 February 2019 (Greece)
Ελληνικές Φωνές: Παναγιώτης Αποστολόπουλος, Ντίνος Σούτης, Φώτης Πετρίδης, Λίλα Μουτσοπούλου, Γιάννης Στεφόπουλος κ.α. 

IMDB: https://www.imdb.com/title/tt5117428/


★★ ΥπόΘεση Ταινίας: ★★  

Το τρυφερό animation ακολουθεί την συναρπαστική περιπέτεια του Ρεξ, του αγαπημένου σκύλου της βασίλισσας, ο οποίος έχει χάσει τα ίχνη της. Στο δρόμο του θα συναντήσει ένα κλαμπ κυνομαχιών, όπου σκύλοι κάθε ράτσας αντιμετωπίζουν ο ένας τον άλλον. Κατά τη διάρκεια του επικού ταξιδιού του για να βρει τη βασίλισσα, ο Ρεξ θα ερωτευτεί και θα ανακαλύψει τον αληθινό του εαυτό.


 ★★ Τεχνικά Χαρακτηριστικά:★★  

General
Format                      : AVI
Format/Info                 : Audio Video Interleave
Format profile              : OpenDML
File size                   : 2.59 GiB
Duration                    : 1 h 25 min
Overall bit rate            : 4 345 kb/s
Writing library             : VirtualDub build 35491/release

Video
ID                          : 0
Format                      : MPEG-4 Visual
Format settings, BVOP       : No
Format settings, QPel       : No
Format settings, GMC        : No warppoints
Format settings, Matrix     : Default (H.263)
Codec ID                    : DX50
Codec ID/Hint               : DivX 5
Duration                    : 1 h 25 min
Bit rate                    : 3 695 kb/s
Nominal bit rate            : 9 708 kb/s
Width                       : 1 280 pixels
Height                      : 720 pixels
Display aspect ratio        : 16:9
Frame rate                  : 24.000 FPS
Color space                 : YUV
Chroma subsampling          : 4:2:0
Bit depth                   : 8 bits
Scan type                   : Progressive
Compression mode            : Lossy
Bits/(Pixel*Frame)          : 0.167
Stream size                 : 2.20 GiB (85%)
Writing library             : DivX 6.8.5 (UTC 2009-08-20)

Audio
ID                          : 1
Format                      : AC-3
Format/Info                 : Audio Coding 3
Commercial name             : Dolby Digital
Codec ID                    : 2000
Duration                    : 1 h 25 min
Bit rate mode               : Constant
Bit rate                    : 640 kb/s
Channel(s)                  : 6 channels
Channel layout              : L R C LFE Ls Rs
Sampling rate               : 48.0 kHz
Frame rate                  : 31.250 FPS (1536 SPF)
Bit depth                   : 16 bits
Compression mode            : Lossy
Stream size                 : 390 MiB (15%)
Alignment                   : Aligned on interleaves
Interleave, duration        : 42  ms (1.00 video frame)
Interleave, preload duratio : 512  ms
Service kind                : Complete Main


ytwXZnk.jpg

 


★★ EasyBytez ★★
Link For Free Users


Hidden Content
You'll be able to see the hidden content once you reply to this topic.


Share this post


Link to post
Share on other sites

Create an account or sign in to comment

You need to be a member in order to leave a comment

Create an account

Sign up for a new account in our community. It's easy!

Register a new account

Sign in

Already have an account? Sign in here.

Sign In Now
Sign in to follow this  

×