Jump to content
Sign in to follow this  
POPIKOSTAS

TOY STORY 4 - Η ΙΣΤΟΡΙΑ ΤΩΝ ΠΑΙΧΝΙΔΙΩΝ 4 (2019) BRRip XviD AC3-XVID - ΜΕΤΑΓΛΩΤΤΙΣΜΕΝΟ

Recommended Posts

POPIKOSTAS

LvgemLLh.jpg

TOY STORY 4 - Η ΙΣΤΟΡΙΑ ΤΩΝ ΠΑΙΧΝΙΔΙΩΝ 4 (2019) BRRip XviD AC3-XVID - ΜΕΤΑΓΛΩΤΤΙΣΜΕΝΟ

ΠΛΗΡΟΦΟΡΙΕΣ

Είδος Ταινίας: Animation, Adventure, Comedy
Πρεμιέρα στην Ελλάδα: Πεμ 20 Ιου 2019
Σκηνοθέτης: Josh Cooley
Σενάριο: John Lasseter (original story by), Andrew Stanton (original story by)
Ηθοποιοί: Tom Hanks, Tim Allen, Annie Potts

Στην ελληνική μεταγλώττιση ακούγονται: Άλκης Κούρκουλος, Γιώργος Λιάντος, Μαρία Πλακίδη, Φοίβος Ριμένας, Δημήτρης Σάρλος, Ευγενία Σκιαθά, Υρώ Μιχαλακάκου, Λορέντζος Φραγκούλης, Τηλέμαχος Κρεβάικας, Ειρήνη Τσίγκα, Λεωνίδας Κουτσόπουλος, Δήμητρα Βαμβακάρη, Άριελ Κωνσταντινίδη, Βίκυ Πετρίδη

ΥΠΟΘΕΣΗ

Ο Woody ήταν πάντα σίγουρος για τη θέση του στον κόσμο και το ότι προτεραιότητα του είναι η φροντίδα του παιδιού του, είτε είναι ο Andy είτε η Bonnie. Οπότε όταν το καινούριο παιχνίδι της Bonnie, που είναι καρπός χειροτεχνίας και ακούει στο όνομα Forky, αυτοαποκαλείται «σκουπίδι», ο Woody αναλαμβάνει να του δείξει ότι πρέπει να αγκαλιάσει το γεγονός ότι είναι ένα παιχνίδι. Όταν η Bonnie παίρνει την παρέα σε οικογενειακή εκδρομή, ο Woody καταλήγει σε μία απρόσμενη παράκαμψη που του επιφυλάσσει τη συνάντηση με τη χαμένη του φίλη Βο Peep. Μετά από χρόνια μοναχικής περιπλάνησης, το περιπετειώδες πνεύμα της Bonnie και οι εμπειρίες της στον δρόμο έρχονται σε αντίθεση με την ντελικάτη, πορσελάνινη επίστρωση της. Πάνω που ο Woody και η Βο συνειδητοποιούν ότι οι κόσμοι τους είναι μακριά σε ό,τι αφορά τη ζωή τους ως παιχνίδια, την ίδια στιγμή καταλαβαίνουν ότι αυτή είναι η πιο ασήμαντη έγνοια τους.

GbgpKoih.jpg

[video=youtube;n64ag2wFgBk]https://www.youtube.com/watch?v=n64ag2wFgBk[/video]

https://www.imdb.com/title/tt1979376/

ΤΕΧΝΙΚΑ ΧΑΡΑΚΤΗΡΙΣΤΙΚΑ


General
Complete name               : Toy.Story.4.2019.Greek.BRRip.XviD.AC3-XVID.avi
Format                      : AVI
Format/Info                 : Audio Video Interleave
File size                   : 1.57 GiB
Duration                    : 1 h 40 min
Overall bit rate            : 2 240 kb/s

Video
ID                          : 0
Format                      : MPEG-4 Visual
Format profile              : [email protected]
Format settings, BVOP       : No
Format settings, QPel       : No
Format settings, GMC        : No warppoints
Format settings, Matrix     : Default (H.263)
Codec ID                    : XVID
Codec ID/Hint               : XviD
Duration                    : 1 h 40 min
Bit rate                    : 1 593 kb/s
Width                       : 720 pixels
Height                      : 302 pixels
Display aspect ratio        : 2.40:1
Frame rate                  : 23.976 (24000/1001) FPS
Color space                 : YUV
Chroma subsampling          : 4:2:0
Bit depth                   : 8 bits
Scan type                   : Progressive
Compression mode            : Lossy
Bits/(Pixel*Frame)          : 0.306
Stream size                 : 1.11 GiB (71%)
Writing library             : Lavc58.35.100

Audio
ID                          : 1
Format                      : AC-3
Format/Info                 : Audio Coding 3
Commercial name             : Dolby Digital
Codec ID                    : 2000
Duration                    : 1 h 40 min
Bit rate mode               : Constant
Bit rate                    : 640 kb/s
Channel(s)                  : 6 channels
Channel layout              : L R C LFE Ls Rs
Sampling rate               : 48.0 kHz
Frame rate                  : 31.250 FPS (1536 SPF)
Bit depth                   : 16 bits
Compression mode            : Lossy
Stream size                 : 458 MiB (29%)
Alignment                   : Aligned on interleaves
Interleave, duration        : 64  ms (1.53 video frames)
Interleave, preload duratio : 192  ms
Title                       : Greek AC3 at 640 kbps by mardim
Service kind                : Complete Main


1MFWSWwh.png

Hidden Content
You'll be able to see the hidden content once you reply to this topic.

  • Like 3
  • Thanks 2

Share this post


Link to post
Share on other sites
milios
On 10/23/2019 at 7:36 AM, POPIKOSTAS said:

 

LvgemLLh.jpg

TOY STORY 4 - Η ΙΣΤΟΡΙΑ ΤΩΝ ΠΑΙΧΝΙΔΙΩΝ 4 (2019) BRRip XviD AC3-XVID - ΜΕΤΑΓΛΩΤΤΙΣΜΕΝΟ

ΠΛΗΡΟΦΟΡΙΕΣ

Είδος Ταινίας: Animation, Adventure, Comedy
Πρεμιέρα στην Ελλάδα: Πεμ 20 Ιου 2019
Σκηνοθέτης: Josh Cooley
Σενάριο: John Lasseter (original story by), Andrew Stanton (original story by)
Ηθοποιοί: Tom Hanks, Tim Allen, Annie Potts

Στην ελληνική μεταγλώττιση ακούγονται: Άλκης Κούρκουλος, Γιώργος Λιάντος, Μαρία Πλακίδη, Φοίβος Ριμένας, Δημήτρης Σάρλος, Ευγενία Σκιαθά, Υρώ Μιχαλακάκου, Λορέντζος Φραγκούλης, Τηλέμαχος Κρεβάικας, Ειρήνη Τσίγκα, Λεωνίδας Κουτσόπουλος, Δήμητρα Βαμβακάρη, Άριελ Κωνσταντινίδη, Βίκυ Πετρίδη

ΥΠΟΘΕΣΗ

Ο Woody ήταν πάντα σίγουρος για τη θέση του στον κόσμο και το ότι προτεραιότητα του είναι η φροντίδα του παιδιού του, είτε είναι ο Andy είτε η Bonnie. Οπότε όταν το καινούριο παιχνίδι της Bonnie, που είναι καρπός χειροτεχνίας και ακούει στο όνομα Forky, αυτοαποκαλείται «σκουπίδι», ο Woody αναλαμβάνει να του δείξει ότι πρέπει να αγκαλιάσει το γεγονός ότι είναι ένα παιχνίδι. Όταν η Bonnie παίρνει την παρέα σε οικογενειακή εκδρομή, ο Woody καταλήγει σε μία απρόσμενη παράκαμψη που του επιφυλάσσει τη συνάντηση με τη χαμένη του φίλη Βο Peep. Μετά από χρόνια μοναχικής περιπλάνησης, το περιπετειώδες πνεύμα της Bonnie και οι εμπειρίες της στον δρόμο έρχονται σε αντίθεση με την ντελικάτη, πορσελάνινη επίστρωση της. Πάνω που ο Woody και η Βο συνειδητοποιούν ότι οι κόσμοι τους είναι μακριά σε ό,τι αφορά τη ζωή τους ως παιχνίδια, την ίδια στιγμή καταλαβαίνουν ότι αυτή είναι η πιο ασήμαντη έγνοια τους.

GbgpKoih.jpg

[video=youtube;n64ag2wFgBk]https://www.youtube.com/watch?v=n64ag2wFgBk[/video]

 

https://www.imdb.com/title/tt1979376/

 

ΤΕΧΝΙΚΑ ΧΑΡΑΚΤΗΡΙΣΤΙΚΑ


General
Complete name               : Toy.Story.4.2019.Greek.BRRip.XviD.AC3-XVID.avi
Format                      : AVI
Format/Info                 : Audio Video Interleave
File size                   : 1.57 GiB
Duration                    : 1 h 40 min
Overall bit rate            : 2 240 kb/s

  Reveal hidden contents

Video
ID                          : 0
Format                      : MPEG-4 Visual
Format profile              : [email protected]
Format settings, BVOP       : No
Format settings, QPel       : No
Format settings, GMC        : No warppoints
Format settings, Matrix     : Default (H.263)
Codec ID                    : XVID
Codec ID/Hint               : XviD
Duration                    : 1 h 40 min
Bit rate                    : 1 593 kb/s
Width                       : 720 pixels
Height                      : 302 pixels
Display aspect ratio        : 2.40:1
Frame rate                  : 23.976 (24000/1001) FPS
Color space                 : YUV
Chroma subsampling          : 4:2:0
Bit depth                   : 8 bits
Scan type                   : Progressive
Compression mode            : Lossy
Bits/(Pixel*Frame)          : 0.306
Stream size                 : 1.11 GiB (71%)
Writing library             : Lavc58.35.100

Audio
ID                          : 1
Format                      : AC-3
Format/Info                 : Audio Coding 3
Commercial name             : Dolby Digital
Codec ID                    : 2000
Duration                    : 1 h 40 min
Bit rate mode               : Constant
Bit rate                    : 640 kb/s
Channel(s)                  : 6 channels
Channel layout              : L R C LFE Ls Rs
Sampling rate               : 48.0 kHz
Frame rate                  : 31.250 FPS (1536 SPF)
Bit depth                   : 16 bits
Compression mode            : Lossy
Stream size                 : 458 MiB (29%)
Alignment                   : Aligned on interleaves
Interleave, duration        : 64  ms (1.53 video frames)
Interleave, preload duratio : 192  ms
Title                       : Greek AC3 at 640 kbps by mardim
Service kind                : Complete Main

 


1MFWSWwh.png

 

Hidden Content
You'll be able to see the hidden content once you reply to this topic.

 

 

thanks

  • Thanks 1

Share this post


Link to post
Share on other sites

Create an account or sign in to comment

You need to be a member in order to leave a comment

Create an account

Sign up for a new account in our community. It's easy!

Register a new account

Sign in

Already have an account? Sign in here.

Sign In Now
Sign in to follow this  

×