Jump to content
loufjohn

κοινωνικό ΓΑΛΑΤΕΙΑ Γ΄ΚΥΚΛΟΣ (2018-2019) ΣΙΓΜΑ ΚΥΠΡΟΥ WEBRip AVI ΕΩΣ 220 ΤΕΛΟΣ

Recommended Posts

loufjohn

ΓΑΛΑΤΕΙΑ Γ΄ΚΥΚΛΟΣ (2018-2019) ΣΙΓΜΑ ΚΥΠΡΟΥ WEBRip AVI


DxBXO8Al.png

 

IaXZX9E.png

ΞΕΚΙΝΑ Ο Γ΄ΚΥΚΛΟΣ

 Ο έρωτας κατάφερε να βγει νικητής απέναντι στην πραγματικότητα της ζωής ή απλά συμβιβάστηκε με τον πιο αδυσώπητο
αντίπαλο: τον χρόνο;

Η ζωή συνεχίζεται και ο χρόνος, λένε, γιατρεύει τις πληγές. Είναι όμως αυτό αλήθεια;

Οι άνθρωποι μαθαίνουν να προσαρμόζονται στα νέα δεδομένα καθώς οι εποχές προχωρούν, ακόμα και αν τα όνειρα έχουν
μείνει απραγματοποίητα.

Όμως η ψυχή δεν ξεχνάει και περιμένει την κατάλληλη στιγμή για να διεκδικήσει όλα όσα της στέρησε η ζωή.

Άραγε τα καταπιεσμένα πάθη θα βρουν την ευκαιρία να βγουν στην επιφάνεια;

Άραγε πόσο δυνατοί είναι οι ήρωες της «Γαλάτειας» για τις νέες μάχες που τους επιφυλάσσει η μοίρα;

Άραγε θα πάρει ο κάθε ένας αυτό που του αξίζει;

Δικαίωση… Τιμωρία… Αναγνώριση… Κατανόηση… Νίκη… Ήττα…

Και ενώ ο κόσμος γύρω τους καταρρέει και ο πόλεμος πλησιάζει αμείλικτος, θα αποδειχθεί τελικά η αγάπη πιο δυνατή;
 
 
ΗΘΟΠΟΙΟΙ:
 
Κρίστοφερ Γκρέκο – Καράγιωρκης
Άλκηστης Παυλίδου – Φλουρεντζού
Δέσποινα Μπεμπεδέλη – Μαριγώ
Ειρήνη Κωνσταντίνου – Πολύμνια
Κώστας Δημητρίου – Αντζουλής
Ανδρέας Μελέκκης – Μιχαηλάς (μουχτάρης)
Ανδρέας Αργυρίδης – Χαμπής
Νεοκλής Νεοκλέους – Κυριάκος
Χριστιάνα Λάρκου – Ανδρονίκη
Βαρβάρα Χριστοφή – Γαλάτεια
Χρήστος Τουμάζου – Πετρής
Ιάκωβος Χατζηβασίλη – Στεφανής
Μάρα Κωνσταντίνου – Μαργαρίτα
Ελευθερία Ανδρέου – Φανούλλα
Πάολα Χατζηλαμπρή – Ερατώ
Βασίλης Μιχαήλ- Πολυδεύκης
Μιχάλης Τερλικκάς – Ποιητάρης
Βαλεντίνα Σοφοκλέους – Βασιλού
Χριστιάνα Θεοδώρου – Αννέτα
 
ΣΕΝΑΡΙΟ: Γιώργος Σοφοκλέους και Ελένη Καούλα
ΓΕΝΙΚΗ ΕΠΙΜΕΛΕΙΑ: Κύρος Ρωσσίδης
ΣΚΗΝΟΘΕΣΙΑ: Κώστας Κωστόπουλος και Πάρις Προκοπίου
 


6KTXyhc.png

tBENaRyl.jpg


sNfCVWD.png


General

Complete name                  : GALATEIA.S03.EP.01.avi
Format                         : AVI
Format/Info                    : Audio Video Interleave
File size                      : 1.01 GiB
Duration                       : 1 h 1 min
Overall bit rate               : 2 337 kb/s

Video
ID                             : 0
Format                         : AVC
Format/Info                    : Advanced Video Codec
Format profile                 : [email protected]
Format settings                : 1 Ref Frames
Format settings, CABAC         : No
Format settings, ReFrames      : 1 frame
Codec ID                       : H264
Duration                       : 1 h 1 min
Bit rate                       : 2 196 kb/s
Width                          : 1 280 pixels
Height                         : 720 pixels
Display aspect ratio           : 16:9
Frame rate                     : 25.000 FPS
Color space                    : YUV
Chroma subsampling             : 4:2:0
Bit depth                      : 8 bits
Scan type                      : Progressive
Bits/(Pixel*Frame)             : 0.095
Stream size                    : 970 MiB (94%)
Writing library                : x264 core 152 r2854 e9a5903

Audio
ID                             : 1
Format                         : MPEG Audio
Format version                 : Version 1
Format profile                 : Layer 3
Codec ID                       : 55
Codec ID/Hint                  : MP3
Duration                       : 1 h 1 min
Bit rate mode                  : Constant
Bit rate                       : 128 kb/s
Channel(s)                     : 1 channel
Sampling rate                  : 44.1 kHz
Compression mode               : Lossy
Stream size                    : 56.5 MiB (5%)
Alignment                      : Aligned on interleaves
Interleave, duration           : 26  ms (0.65 video frame)

 

 

2V9nbDH.png

eKydSyt.jpg


zPAQxlN.png

 

A3VtJrt.png

Hidden Content
You'll be able to see the hidden content once you reply to this topic.

 

aC1zS.gif

Edited by loufjohn
  • Thanks 1

Share this post


Link to post
Share on other sites
loufjohn

ΑΝΕΒΗΚΕ ΕΩΣ ΤΟ 60

Share this post


Link to post
Share on other sites
loufjohn

ΑΝΕΒΗΚΕ ΕΩΣ ΤΟ 61

Share this post


Link to post
Share on other sites
fotini goumas
Στις ‎1‎/‎12‎/‎2018 στις 3:31 ΠΜ, loufjohn είπε

ΓΑΛΑΤΕΙΑ Γ΄ΚΥΚΛΟΣ (2018-2019) ΣΙΓΜΑ ΚΥΠΡΟΥ WEBRip AVI


DxBXO8Al.png

 

IaXZX9E.png

ΞΕΚΙΝΑ Ο Γ΄ΚΥΚΛΟΣ

 Ο έρωτας κατάφερε να βγει νικητής απέναντι στην πραγματικότητα της ζωής ή απλά συμβιβάστηκε με τον πιο αδυσώπητο
αντίπαλο: τον χρόνο;

Η ζωή συνεχίζεται και ο χρόνος, λένε, γιατρεύει τις πληγές. Είναι όμως αυτό αλήθεια;

Οι άνθρωποι μαθαίνουν να προσαρμόζονται στα νέα δεδομένα καθώς οι εποχές προχωρούν, ακόμα και αν τα όνειρα έχουν
μείνει απραγματοποίητα.

Όμως η ψυχή δεν ξεχνάει και περιμένει την κατάλληλη στιγμή για να διεκδικήσει όλα όσα της στέρησε η ζωή.

Άραγε τα καταπιεσμένα πάθη θα βρουν την ευκαιρία να βγουν στην επιφάνεια;

Άραγε πόσο δυνατοί είναι οι ήρωες της «Γαλάτειας» για τις νέες μάχες που τους επιφυλάσσει η μοίρα;

Άραγε θα πάρει ο κάθε ένας αυτό που του αξίζει;

Δικαίωση… Τιμωρία… Αναγνώριση… Κατανόηση… Νίκη… Ήττα…

Και ενώ ο κόσμος γύρω τους καταρρέει και ο πόλεμος πλησιάζει αμείλικτος, θα αποδειχθεί τελικά η αγάπη πιο δυνατή;
 
 
ΗΘΟΠΟΙΟΙ:
 
Κρίστοφερ Γκρέκο – Καράγιωρκης
Άλκηστης Παυλίδου – Φλουρεντζού
Δέσποινα Μπεμπεδέλη – Μαριγώ
Ειρήνη Κωνσταντίνου – Πολύμνια
Κώστας Δημητρίου – Αντζουλής
Ανδρέας Μελέκκης – Μιχαηλάς (μουχτάρης)
Ανδρέας Αργυρίδης – Χαμπής
Νεοκλής Νεοκλέους – Κυριάκος
Χριστιάνα Λάρκου – Ανδρονίκη
Βαρβάρα Χριστοφή – Γαλάτεια
Χρήστος Τουμάζου – Πετρής
Ιάκωβος Χατζηβασίλη – Στεφανής
Μάρα Κωνσταντίνου – Μαργαρίτα
Ελευθερία Ανδρέου – Φανούλλα
Πάολα Χατζηλαμπρή – Ερατώ
Βασίλης Μιχαήλ- Πολυδεύκης
Μιχάλης Τερλικκάς – Ποιητάρης
Βαλεντίνα Σοφοκλέους – Βασιλού
Χριστιάνα Θεοδώρου – Αννέτα
 
ΣΕΝΑΡΙΟ: Γιώργος Σοφοκλέους και Ελένη Καούλα
ΓΕΝΙΚΗ ΕΠΙΜΕΛΕΙΑ: Κύρος Ρωσσίδης
ΣΚΗΝΟΘΕΣΙΑ: Κώστας Κωστόπουλος και Πάρις Προκοπίου
 


6KTXyhc.png

tBENaRyl.jpg


sNfCVWD.png


General

Complete name                  : GALATEIA.S03.EP.01.avi
Format                         : AVI
Format/Info                    : Audio Video Interleave
File size                      : 1.01 GiB
Duration                       : 1 h 1 min
Overall bit rate               : 2 337 kb/s

Video
ID                             : 0
Format                         : AVC
Format/Info                    : Advanced Video Codec
Format profile                 : [email protected]
Format settings                : 1 Ref Frames
Format settings, CABAC         : No
Format settings, ReFrames      : 1 frame
Codec ID                       : H264
Duration                       : 1 h 1 min
Bit rate                       : 2 196 kb/s
Width                          : 1 280 pixels
Height                         : 720 pixels
Display aspect ratio           : 16:9
Frame rate                     : 25.000 FPS
Color space                    : YUV
Chroma subsampling             : 4:2:0
Bit depth                      : 8 bits
Scan type                      : Progressive
Bits/(Pixel*Frame)             : 0.095
Stream size                    : 970 MiB (94%)
Writing library                : x264 core 152 r2854 e9a5903

Audio
ID                             : 1
Format                         : MPEG Audio
Format version                 : Version 1
Format profile                 : Layer 3
Codec ID                       : 55
Codec ID/Hint                  : MP3
Duration                       : 1 h 1 min
Bit rate mode                  : Constant
Bit rate                       : 128 kb/s
Channel(s)                     : 1 channel
Sampling rate                  : 44.1 kHz
Compression mode               : Lossy
Stream size                    : 56.5 MiB (5%)
Alignment                      : Aligned on interleaves
Interleave, duration           : 26  ms (0.65 video frame)

 

 

2V9nbDH.png

eKydSyt.jpg


zPAQxlN.png

 

ΕΥΧΑΡΙΣΤΩA3VtJrt.png

 

Hidden Content
You'll be able to see the hidden content once you reply to this topic.

 

 

aC1zS.gif

 

Edited by fotini goumas
ΕΥΧΑΡΙΣΤΩ
  • Thanks 1

Share this post


Link to post
Share on other sites
fotini goumas
Μόλις τώρα, fotini goumas είπε

 

ΕΥΧΑΡΙΣΤΩ

 

Share this post


Link to post
Share on other sites
fotini goumas

ΕΥΧΑΡΙΣΤΩ

Spoiler

 

 

Share this post


Link to post
Share on other sites
loufjohn

ΑΝΕΒΗΚΕ ΕΩΣ ΤΟ 62

Share this post


Link to post
Share on other sites
loufjohn

ΑΝΕΒΗΚΕ ΕΩΣ ΤΟ 64

Share this post


Link to post
Share on other sites
fotini goumas
On ‎12‎/‎4‎/‎2018 at 4:53 PM, fotini goumas said:

 

ΕΥΧΑΡΙΣΤΩ

Share this post


Link to post
Share on other sites
loufjohn

ΑΝΕΒΗΚΕ ΕΩΣ ΤΟ 65

Share this post


Link to post
Share on other sites
loufjohn

ΑΝΕΒΗΚΕ ΕΩΣ ΤΟ 66

Share this post


Link to post
Share on other sites
loufjohn

ΑΝΕΒΗΚΕ ΕΩΣ 82

Share this post


Link to post
Share on other sites
loufjohn

ΑΝΕΒΗΚΕ ΕΩΣ ΤΟ 84

Share this post


Link to post
Share on other sites
loufjohn

ΑΝΕΒΗΚΕ ΕΩΣ ΤΟ 85

Share this post


Link to post
Share on other sites
loufjohn

ΑΝΕΒΗΚΕ ΕΩΣ ΤΟ 86

Share this post


Link to post
Share on other sites

Create an account or sign in to comment

You need to be a member in order to leave a comment

Create an account

Sign up for a new account in our community. It's easy!

Register a new account

Sign in

Already have an account? Sign in here.

Sign In Now

×