Jump to content
Sign in to follow this  
ScooterMan

[θρίλερ αγωνίας] SUBURBICON (2017) BluRay 1080p DTS x264-CHD | ΞΕΧΩΡΙΣΤΟΙ ΥΠΟΤΙΤΛΟΙ

Recommended Posts

ScooterMan


suburbicon.2017.bluray.jpg


 ★★ Πληροφορίες Ταινίας: ★★  

Ελληνικός Τίτλος: -
Είδος Ταινίας: Crime, Drama, Mystery 
Σκηνοθέτης: George Clooney 
Σεναριογράφος: Joel Coen, Ethan Coen 
Ηθοποιοί: Matt Damon, Julianne Moore, Oscar Isaac
Πρεμιέρα: 26 October 2017 (Greece)
Μετάφραση: Vaghelis Italianο Perfetto

IMDb: http://www.imdb.com/title/tt0491175/ [/size]


★★ ΥπόΘεση Ταινίας: ★★  

αλώς ήρθατε στο ηλιόλουστο Suburbicon! Ένα προάστιο με χαρούμενες οικογένειες, ακριβώς στην καρδιά της κεντρικής Αμερικής. Με τα οικονομικά σπίτια τους και το φροντισμένο γρασίδι στους κήπους τους, το Suburbicon είναι η απάντηση στο αμερικάνικο όνειρο του 1957. Αν και η οικογένεια Λοντζ είναι μία εκ των ακρογωνιαίων λίθων στη συγκεκριμένη κοινότητα, η ζωή τους ανατρέπεται ξαφνικά όταν μια επίθεση που δέχονται από αγνώστους μέσα στο σπίτι τους, επιφέρει τον τραγικό θάνατο της μητέρας του μικρού Νίκι. Μια απρόβλεπτη και γεμάτη υποψίες διαδοχή από γεγονότα μπλέκει την οικογένεια σε έναν ιστό από προδοσίες, μοιχεία και εκβιασμούς...


 ★★ Τεχνικά Χαρακτηριστικά:★★  

General
Format                      : Matroska
Format version              : Version 4
File size                   : 8.65 GiB
Duration                    : 1 h 45 min
Overall bit rate            : 11.8 Mb/s
Movie name                  : Today @ CHD
Encoded date                : UTC 2018-02-08 01:47:48
Writing application         : mkvmerge v20.0.0 ('I Am The Sun') 64-bit
Writing library             : libebml v1.3.5 + libmatroska v1.4.8

Video
ID                          : 1
Format                      : AVC
Format/Info                 : Advanced Video Codec
Format profile              : [email protected]
Format settings             : CABAC / 5 Ref Frames
Format settings, CABAC      : Yes
Format settings, ReFrames   : 5 frames
Codec ID                    : V_MPEG4/ISO/AVC
Duration                    : 1 h 45 min
Bit rate                    : 10.2 Mb/s
Width                       : 1 920 pixels
Height                      : 804 pixels
Display aspect ratio        : 2.40:1
Frame rate mode             : Constant
Frame rate                  : 23.976 (24000/1001) FPS
Color space                 : YUV
Chroma subsampling          : 4:2:0
Bit depth                   : 8 bits
Scan type                   : Progressive
Bits/(Pixel*Frame)          : 0.275
Stream size                 : 7.48 GiB (86%)
Writing library             : x264 core 148 r2744+55 950084e t_mod_Custom [[email protected] X86]
Encoding settings           : cabac=1 / ref=5 / deblock=1:-3:-3 / analyse=0x3:0x133 / me=umh / subme=11 / psy=1 / fade_compensate=0.00 / psy_rd=1.00:0.00 / mixed_ref=1 / me_range=32 / chroma_me=1 / trellis=2 / 8x8dct=1 / cqm=0 / deadzone=21,11 / fast_pskip=1 / chroma_qp_offset=-2 / threads=12 / lookahead_threads=2 / sliced_threads=0 / nr=0 / decimate=1 / interlaced=0 / bluray_compat=0 / constrained_intra=0 / fgo=0 / bframes=9 / b_pyramid=2 / b_adapt=2 / b_bias=0 / direct=1 / weightb=1 / open_gop=0 / weightp=2 / keyint=240 / keyint_min=23 / scenecut=40 / intra_refresh=0 / rc=crf / mbtree=0 / crf=18.1000 / qcomp=0.60 / qpmin=0:0:0 / qpmax=69:69:69 / qpstep=4 / ip_ratio=1.40 / pb_ratio=1.30 / aq=3:1.00 / aq-sensitivity=10.00 / aq-factor=1.00:1.00:1.00 / aq2=0 / aq3=0
Language                    : English
Default                     : Yes
Forced                      : No

Audio
ID                          : 2
Format                      : DTS
Format/Info                 : Digital Theater Systems
Codec ID                    : A_DTS
Duration                    : 1 h 45 min
Bit rate mode               : Constant
Bit rate                    : 1 509 kb/s
Channel(s)                  : 6 channels
Channel layout              : C L R Ls Rs LFE
Sampling rate               : 48.0 kHz
Frame rate                  : 93.750 FPS (512 SPF)
Bit depth                   : 24 bits
Compression mode            : Lossy
Stream size                 : 1.11 GiB (13%)
Title                       : English
Language                    : English
Default                     : Yes
Forced                      : No

Text #1
ID                          : 3
Format                      : PGS
Muxing mode                 : zlib
Codec ID                    : S_HDMV/PGS
Codec ID/Info               : Picture based subtitle format used on BDs/HD-DVDs
Duration                    : 1 h 34 min
Bit rate                    : 25.5 kb/s
Count of elements           : 2127
Stream size                 : 17.3 MiB (0%)
Title                       : Chs
Language                    : Chinese
Default                     : Yes
Forced                      : No

Text #2
ID                          : 4
Format                      : PGS
Muxing mode                 : zlib
Codec ID                    : S_HDMV/PGS
Codec ID/Info               : Picture based subtitle format used on BDs/HD-DVDs
Duration                    : 1 h 34 min
Bit rate                    : 27.9 kb/s
Count of elements           : 2127
Stream size                 : 19.0 MiB (0%)
Title                       : Cht
Language                    : Chinese
Default                     : No
Forced                      : No

Text #3
ID                          : 5
Format                      : PGS
Muxing mode                 : zlib
Codec ID                    : S_HDMV/PGS
Codec ID/Info               : Picture based subtitle format used on BDs/HD-DVDs
Duration                    : 1 h 34 min
Bit rate                    : 45.3 kb/s
Count of elements           : 2127
Stream size                 : 30.8 MiB (0%)
Title                       : Chs&Eng
Language                    : Chinese
Default                     : No
Forced                      : No

Text #4
ID                          : 6
Format                      : PGS
Muxing mode                 : zlib
Codec ID                    : S_HDMV/PGS
Codec ID/Info               : Picture based subtitle format used on BDs/HD-DVDs
Duration                    : 1 h 34 min
Bit rate                    : 47.7 kb/s
Count of elements           : 2127
Stream size                 : 32.4 MiB (0%)
Title                       : Cht&Eng
Language                    : Chinese
Default                     : No
Forced                      : No

Text #5
ID                          : 7
Format                      : PGS
Muxing mode                 : zlib
Codec ID                    : S_HDMV/PGS
Codec ID/Info               : Picture based subtitle format used on BDs/HD-DVDs
Duration                    : 1 h 34 min
Bit rate                    : 33.6 kb/s
Count of elements           : 2544
Stream size                 : 22.8 MiB (0%)
Title                       : Eng
Language                    : English
Default                     : No
Forced                      : No

Text #6
ID                          : 8
Format                      : PGS
Muxing mode                 : zlib
Codec ID                    : S_HDMV/PGS
Codec ID/Info               : Picture based subtitle format used on BDs/HD-DVDs
Duration                    : 1 h 35 min
Bit rate                    : 33.2 kb/s
Count of elements           : 2538
Stream size                 : 22.6 MiB (0%)
Title                       : Spa
Language                    : Spanish
Default                     : No
Forced                      : No


k7RhQl6.jpg

 


★★ EasyBytez ★★
Link For Free Users


Hidden Content
You'll be able to see the hidden content once you reply to this topic.


Share this post


Link to post
Share on other sites

Create an account or sign in to comment

You need to be a member in order to leave a comment

Create an account

Sign up for a new account in our community. It's easy!

Register a new account

Sign in

Already have an account? Sign in here.

Sign In Now
Sign in to follow this  

×