Jump to content
Sign in to follow this  
dionysos

DEAR DRACULA - ΑΓΑΠΗΤΕ ΔΡΑΚΟΥΛΑ (2012) BBRip (ΜΕΤΑΓΛΩΤΙΣΜΕΝΟ)

Recommended Posts

dionysos

DEAR DRACULA - ΑΓΑΠΗΤΕ ΔΡΑΚΟΥΛΑ (2012) BBRip (ΜΕΤΑΓΛΩΤΙΣΜΕΝΟ)


URRedAt.jpg


9c8MzAu.png

Ο Σαμ είναι ενα παιδί του δημοτικού που ζει με τη γιαγιά του.Λατρεύει τις ταινίες τρόμου και ο αγαπημένος του ΄"κακός" είναι ο Κόμης Δράκουλας.


Ενθουσιασμένος από μια καινούρια κούκλα του Δράκουλα που τη διαφημίζει η τηλεόραση, το αναφέρει στη γιαγιά του.
Εκείνη του προτείνει να γράψει ένα γράμμα στον Άγιο Βασίλη και να του το ζητήσει ως Χριστουγεννιάτικο δώρο.
Ο Σαμ όμως έχει μια καλύτερη ιδέα.Μιας και οι Αποκριές (Halloween) κοντεύουν στέλνει ένα γράμμα στον ίδιο τον Κόμη Δράκουλα και του γράφει το πόσο πολύ είναι θαυμαστής του.


9Sl28Dn.png

https://www.youtube.com/watch?v=qxnr1ejb8ys


wXrplQs.png

arBxlLY.jpg

2blFkhb.png


https://www.imdb.com/title/tt2428378/



Είδος Ταινίας: Animation, Family
Έτος: 2012
Διάρκεια: 42'
Σκηνοθεσία: Chad Van De Keere
Σενάριο: Brad Birch
Ηθοποιοί: Ray Liotta, Emilio Estevez, Ariel Winter
Γλώσσα: Ελληνικά
 
Spoiler

 

General
Format                         : AVI
Format/Info                    : Audio Video Interleave
File size                      : 786 MiB
Duration                       : 41mn 11s
Overall bit rate               : 2 667 Kbps

Video
ID                             : 0
Format                         : MPEG-4 Visual
Format profile                 : [email protected]
Format settings, BVOP          : Yes
Format settings, QPel          : No
Format settings, GMC           : No warppoints
Format settings, Matrix        : Default (H.263)
Codec ID                       : XVID
Codec ID/Hint                  : XviD
Duration                       : 41mn 11s
Bit rate                       : 2 495 Kbps
Width                          : 720 pixels
Height                         : 400 pixels
Display aspect ratio           : 16:9
Frame rate                     : 25.000 fps
Color space                    : YUV
Chroma subsampling             : 4:2:0
Bit depth                      : 8 bits
Scan type                      : Progressive
Compression mode               : Lossy
Bits/(Pixel*Frame)             : 0.347
Stream size                    : 735 MiB (94%)

Audio
ID                             : 1
Format                         : MPEG Audio
Format version                 : Version 1
Format profile                 : Layer 3
Mode                           : Joint stereo
Mode extension                 : MS Stereo
Codec ID                       : 55
Codec ID/Hint                  : MP3
Duration                       : 41mn 11s
Bit rate mode                  : Constant
Bit rate                       : 160 Kbps
Channel(s)                     : 2 channels
Sampling rate                  : 44.1 KHz
Compression mode               : Lossy
Stream size                    : 47.1 MiB (6%)
Alignment                      : Aligned on interleaves
Interleave, duration           : 26 ms (0.65 video frame)
Interleave, preload duration   : 2377 ms
Writing library                : LAME3.97

 



QEhSRZe.gif


VpN68Zi.png


Hidden Content
You'll be able to see the hidden content once you reply to this topic.

Share this post


Link to post
Share on other sites
tokos

ευχαριστω

Share this post


Link to post
Share on other sites
morfanid17

thnx!!!

Share this post


Link to post
Share on other sites

Create an account or sign in to comment

You need to be a member in order to leave a comment

Create an account

Sign up for a new account in our community. It's easy!

Register a new account

Sign in

Already have an account? Sign in here.

Sign In Now
Sign in to follow this  

×