Jump to content
Sign in to follow this  
POPIKOSTAS

κωμωδία BLACK FRIDAY ΚΑΙ 13 (2017) 1080p

Recommended Posts

POPIKOSTAS

Hz8kI2Zh.png

BLACK FRIDAY ΚΑΙ 13 (2017) 1080p

ΠΛΗΡΟΦΟΡΙΕΣ

Είδος Ταινίας: Κωμωδία
Σκηνοθεσία: Μάρκος Σεφερλής
Σενάριο: Μάρκος Σεφερλής, Στέλιος Παπαδόπουλος
Ηθοποιοί: Μάρκος Σεφερλής, Έλενα Τσαβαλιἀ, Γιάννης Καπετάνιος, Θοδωρής Ρωμανίδης, Αρετή Ζαζαριάδου, Γιάννης Αγριόμαλλος, Ανάργυρος Βαζαίος, Σοφιάννα Γρηγοριάδη.

ΥΠΟΘΕΣΗ

Ή αλλιώς… «Ο καλός, ο κακός, ο ψηλός, ο κοντός, η χαζή, η τρελή, η χοντρή, ο κουτός και ο… άσημος»,

τα μέλη δηλαδή ενός «θεότρελου» κινηματογραφικού συνεργείου που έχει κλείσει την Παρασκευή και 13 το θέατρο «ΠΕΡΟΚΕ»
για το γύρισμα μιας σκηνής από την ταινία «Ένα αστέρι πεθαίνει».

Τί θα συμβεί μπροστά στα μάτια των εκατοντάδων «κομπάρσων» που θα παρευρεθούν εκείνη τη μέρα στο γύρισμα;

Θα είναι μια… «Black Friday» γεμάτη «ευκαιρίες» για τα μέλη του συνεργείου να αναδείξουν τα ταλέντα τους σε όλα τα επίπεδα
(ερωτικά, υποκριτικά, σκηνοθετικά) ή μια κλασική… γρουσούζικη «Παρασκευή και 13», που θα εξελιχθεί σε θρίλερ για όλους;

Ή μήπως ένας σπαρταριστός συνδυασμός και των δύο, δηλαδή μία…«Black Friday και 13»;

U3fP5skh.jpg
WHuImi6h.jpg


ΤΕΧΝΙΚΑ ΧΑΡΑΚΤΗΡΙΣΤΙΚΑ


General
Complete name               : Black.Friday.&.13.Part.1.1080p.mp4
Format                      : MPEG-4
Format profile              : Base Media
Codec ID                    : isom (isom/iso2/avc1/mp41)
File size                   : 3.57 GiB
Duration                    : 2 h 19 min
Overall bit rate            : 3 653 kb/s
Movie name                  : Black Friday και 13  | A' Μέρος (Μάρκος Σεφερλής - Περοκέ 2017 )
Performer                   : Markos Seferlis
Recorded date               : 2019
Writing application         : Lavf58.18.104
Comment                     : https://www.youtube.com/watch?v=0YqO45ae0PM

Video
ID                          : 1
Format                      : AVC
Format/Info                 : Advanced Video Codec
Format profile              : [email protected]
Format settings             : CABAC / 3 Ref Frames
Format settings, CABAC      : Yes
Format settings, Reference  : 3 frames
Codec ID                    : avc1
Codec ID/Info               : Advanced Video Coding
Duration                    : 2 h 19 min
Bit rate                    : 3 550 kb/s
Width                       : 1 920 pixels
Height                      : 1 080 pixels
Display aspect ratio        : 16:9
Frame rate mode             : Constant
Frame rate                  : 25.000 FPS
Color space                 : YUV
Chroma subsampling          : 4:2:0
Bit depth                   : 8 bits
Scan type                   : Progressive
Bits/(Pixel*Frame)          : 0.068
Stream size                 : 3.47 GiB (97%)
Title                       : ISO Media file produced by Google Inc.
Writing library             : x264 core 155 r2901 7d0ff22
Color range                 : Limited
Color primaries             : BT.709
Transfer characteristics    : BT.709
Matrix coefficients         : BT.709
Codec configuration box     : avcC

Audio
ID                          : 2
Format                      : AAC LC
Format/Info                 : Advanced Audio Codec Low Complexity
Codec ID                    : mp4a-40-2
Duration                    : 2 h 19 min
Bit rate mode               : Constant
Bit rate                    : 96.0 kb/s
Channel(s)                  : 1 channel
Channel layout              : C
Sampling rate               : 44.1 kHz
Frame rate                  : 43.066 FPS (1024 SPF)
Compression mode            : Lossy
Stream size                 : 96.0 MiB (3%)
Title                       : ISO Media file produced by Google Inc.
Default                     : Yes
Alternate group             : 1


qO4Dexcl.png

Hidden Content
You'll be able to see the hidden content once you reply to this topic.

Share this post


Link to post
Share on other sites
apostk

ttthhhaannkksss

Share this post


Link to post
Share on other sites

Create an account or sign in to comment

You need to be a member in order to leave a comment

Create an account

Sign up for a new account in our community. It's easy!

Register a new account

Sign in

Already have an account? Sign in here.

Sign In Now
Sign in to follow this  

×