Jump to content
loufjohn

δράμα ΚΟΚΚΙΝΟ ΠΟΤΑΜΙ (2019) OPEN TV TVrip AVI ΕΩΣ 28

Recommended Posts

loufjohn

ΚΟΚΚΙΝΟ ΠΟΤΑΜΙ (2019) OPEN TV TVrip AVI


PMIgQvUl.jpg


IaXZX9E.png


Η ιστορία που διηγείται «Το Κόκκινο Ποτάμι» ξεκινά στην κωμόπολη Ακ Νταγ Ματέν του νομού Αγκύρας το Μάιο του 1895. Ξεκινά όταν η οικογένεια του Γεωργίου Παυλίδη αρραβωνιάζει το 12χρονο γιο της, τον Μίλτο,
µε την μόλις 9χρονη Ιφιγένεια, κόρη του Μιχάλη Νικολαΐδη. Ένας αρραβώνας σκοπιμότητας, όπως συνηθιζόταν εκείνη την εποχή, καθώς σύμφωνα µε το μουσουλμανικό νόμο αν ένα κορίτσι αρραβωνιαζόταν θεωρείτο ατιμασμένο
και δεν επιτρεπόταν να γίνει γυναίκα μουσουλμάνου. Οι επιθέσεις των φανατικών Τούρκων θα αναγκάσουν τις δύο οικογένειες, να εγκαταλείψουν τον τόπο τους. Οι δυο νέοι θα ξανασυναντηθούν τυχαία στην Κωνσταντινούπολη 11 χρόνια μετά.
Xωρίς να γνωρίζουν την οικογενειακή σχέση που τους δένει, ερωτεύονται κεραυνοβόλα. Ένας έρωτας που θα βρεθεί αντιμέτωπος με πολλά δεινά.


Ηθοποιοί: Ιωάννης Παπαζήσης, Αναστασία Παντούση, Τάνια Τρύπη, Κωνσταντίνος Καζάκος, Τάκης Βαμβακίδης, Χαρά – Μάρα Γιαννάτου, Τατιάνα Παπαμόσχου, Δημήτρης Δρόσος, Σωτήρης Χατζάκης, Στέφανος Κυριακίδης, Πέτρος Ξεκούκης,
Κώστας Ξηκομηνός, Αργύρης Πανταζάρας, Νικόλας Παπαγιάννης, Γιώργος Παυλίδης, Γεράσιμος Σκιαδαρέσης, Γιώργος Τσαμπουράκης, Θοδωρής Φρατζέσκος, Κέλλυ Γιακουμάκη καθώς και πολλοί ακόμα ταλαντούχοι ηθοποιοί.

Συντελεστές
Σκηνοθεσία: Μανούσος Μανουσάκης
Σενάριο: Νίκος Απειρανθίτης, Δώρα Μασκλαβάνου
Διευθυντής φωτογραφίας: Γιώργος Παπανδρικόπουλος
Διευθυντής Μοντάζ: Κωνσταντίνος Αδρακτάς
Σκηνογράφος: Κατερίνα Ζουράρη
Ενδυματολόγος: Μαρία Μαγγίρα
Διεύθυνση Παραγωγής: Μαρία Μανουσάκη

6KTXyhc.png


nUMkxadl.jpg


sNfCVWD.png

    

   General
      Complete name :POTAMI.EP.01-02.avi
      Format : AVI
      Format/Info : Audio Video Interleave
      File size : 1.27 GiB
      Duration : 1 h 23 min
      Overall bit rate : 2 163 kb/s
   Video #0
      ID : 0
      Format : AVC
      Format/Info : Advanced Video Codec
      Format profile : [email protected]
      Format settings : 1 Ref Frames
      Format settings, CABAC : No
      Format settings, ReFrames : 1 frame
      Codec ID : H264
      Duration : 1 h 23 min
      Bit rate : 2 022 kb/s
      Width : 1 024 pixels
      Height : 576 pixels
      Display aspect ratio : 16:9
      Frame rate : 25.000 FPS
      Color space : YUV
      Chroma subsampling : 4:2:0
      Bit depth : 8 bits
      Scan type : Progressive
      Bits/(Pixel*Frame) : 0.137
      Stream size : 1.18 GiB (93%)

   Audio #1
      ID : 1
      Format : MPEG Audio
      Format version : Version 1
      Format profile : Layer 3
      Codec ID : 55
      Codec ID/Hint : MP3
      Duration : 1 h 23 min
      Bit rate mode : Constant
      Bit rate : 128 kb/s
      Channel(s) : 2 channels
      Sampling rate : 48.0 kHz
      Compression mode : Lossy
      Stream size : 76.8 MiB (6%)
      Alignment : Aligned on interleaves
      Interleave, duration : 24  ms (0.60 video frame)     
 

2V9nbDH.png

eKydSyt.jpg


zPAQxlN.png

 

A3VtJrt.png

Hidden Content
You'll be able to see the hidden content once you reply to this topic.

 

Edited by loufjohn
  • Thanks 1

Share this post


Link to post
Share on other sites

Create an account or sign in to comment

You need to be a member in order to leave a comment

Create an account

Sign up for a new account in our community. It's easy!

Register a new account

Sign in

Already have an account? Sign in here.

Sign In Now

×