Jump to content
Sign in to follow this  
ScooterMan

δράμα LIGHT OF MY LIFE (2019) 720p BRRip XViD AC3-XVID | ΕΝΣΩΜΑΤΩΜΕΝΟΙ ΥΠΟΤΙΤΛΟΙ

Recommended Posts

ScooterMan


7Zy2lKj.jpg


 ★★ Πληροφορίες Ταινίας: ★★  

Ελληνικός Τίτλος: Φως Στο Σκοτάδι
Είδος Ταινίας: Drama
Σκηνοθέτης: Casey Affleck
Σεναριογράφος: Casey Affleck
Ηθοποιοί:  Anna Pniowsky, Casey Affleck, Tom Bower
Πρεμιέρα: 9 August 2019 (USA)
Μετάφραση:  V.I.P Team Stam Tonia Angelina37 Adespoti

IMDB: https://www.imdb.com/title/tt6063090/

★★ ΥπόΘεση Ταινίας: ★★  

Ένας πατέρας πρέπει με κάθε τρόπο να κρύψει την ταυτότητα του παιδιού του, καθώς είναι ένα από τα τελευταία κορίτσια που έχουν επιβιώσει στον πλανήτη έπειτα από μια πανδημία η οποία εξαφάνισε τον θηλυκό πληθυσμό. Ο βραβευμένος με Όσκαρ Κέισι Άφλεκ πρωταγωνιστεί πλάι στην 11χρονη Άννα Πνιόφσκι και την Ελίζαμπεθ Μος και σκηνοθετεί με ωριμότητα μια αναπάντεχη περιπέτεια πάνω στα όρια της αγάπης, της ανθρώπινης επιβίωσης και της μοναδικής σταθεράς σε αυτό τον κόσμο, τη γυναίκα..

 ★★ Τεχνικά Χαρακτηριστικά:★★  

General
Format                      : AVI
Format/Info                 : Audio Video Interleave
Format profile              : OpenDML
File size                   : 2.56 GiB
Duration                    : 1 h 59 min
Overall bit rate            : 3 061 kb/s
Writing application         : Lavf58.20.100
Writing library             : VirtualDub build 35491/release

Video
ID                          : 0
Format                      : MPEG-4 Visual
Format settings, BVOP       : No
Format settings, QPel       : No
Format settings, GMC        : No warppoints
Format settings, Matrix     : Default (H.263)
Codec ID                    : DX50
Codec ID/Hint               : DivX 5
Duration                    : 1 h 59 min
Bit rate                    : 2 410 kb/s
Nominal bit rate            : 9 708 kb/s
Width                       : 1 200 pixels
Height                      : 720 pixels
Display aspect ratio        : 5:3
Frame rate                  : 23.976 (24000/1001) FPS
Color space                 : YUV
Chroma subsampling          : 4:2:0
Bit depth                   : 8 bits
Scan type                   : Progressive
Compression mode            : Lossy
Bits/(Pixel*Frame)          : 0.116
Stream size                 : 2.02 GiB (79%)
Writing library             : DivX 6.8.5 (UTC 2009-08-20)

Audio
ID                          : 1
Format                      : AC-3
Format/Info                 : Audio Coding 3
Commercial name             : Dolby Digital
Codec ID                    : 2000
Duration                    : 1 h 59 min
Bit rate mode               : Constant
Bit rate                    : 640 kb/s
Channel(s)                  : 6 channels
Channel layout              : L R C LFE Ls Rs
Sampling rate               : 48.0 kHz
Frame rate                  : 31.250 FPS (1536 SPF)
Bit depth                   : 16 bits
Compression mode            : Lossy
Stream size                 : 549 MiB (21%)
Alignment                   : Aligned on interleaves
Interleave, duration        : 42  ms (1.00 video frame)
Interleave, preload duratio : 512  ms
Service kind                : Complete Main


DGn1FEU.jpg

 


★★ EasyBytez  ★★


Hidden Content
You'll be able to see the hidden content once you reply to this topic.


Share this post


Link to post
Share on other sites
andreas17

thanks

Share this post


Link to post
Share on other sites

Create an account or sign in to comment

You need to be a member in order to leave a comment

Create an account

Sign up for a new account in our community. It's easy!

Register a new account

Sign in

Already have an account? Sign in here.

Sign In Now
Sign in to follow this  

×