Jump to content
PRESIDENT

κωμωδία Ostinato destino (ΔΙΔΥΜΟΣ ΠΕΙΡΑΣΜΟΣ) (1992)DVDRip XviD ΕΝΣΩΜΑΤΩΜΕΝΟΙ ΕΛΛΗΝΙΚΟΙ ΥΠΟΤΙΤΛΟΙ

Recommended Posts

PRESIDENT

szkVm.jpg

 

movie_info.png
Κατηγορία: Drama | Comedy | Romance
Ηθοποιοί: Monica Bellucci, Alessandro Gassman and Lauretta Masiero
Σκηνοθεσία: Gianfranco Albano
Σενάριο: Francesco Costa, Antonio Nibby
Πρεμιέρα: Άγνωστη
Χώρα παραγωγής: Άγνωστη
Γλώσσα: Ιταλικά
Διάρκεια: 93' Λεπτά
Υπότιτλοι: Ελληνικοί, Ενσωματωμένοι
imdb Link: http://www.imdb.com/title/tt0137142/

 


plotr.png
Μοιάζουν σαν δυο σταγόνες νερό, όμως είναι τόσο διαφορετικές. Η Μαρίνα, ψυχρή και υπολογίστρια. Η αδελφή της Άντζελα, παρορμητική και γενναιόδωρη. Η Μαρίνα πρόκειται να παντρευτεί τον Μαρσέλο, ο οποίος ζητάει απεγνωσμένα ένα παιδί, προκειμένου να κληρονομήσει την αμύθητη περιουσία της μητέρας του, αφού είναι βασικός όρος της διαθήκης της. Η Μαρίνα, σχεδιάζει να παντρευτεί τον τεμπέλη αριστοκράτη και μετά να τον δολοφονήσει. Όμως η γνωριμία της Άντζελα με τον Μαρσέλο και η θυελλώδης ερωτική τους σχέση, θα ανατρέψει το σκηνικό...


MEDIA INFO

General
Complete name :Ostinato destino (1992).DVDRip.avi
Format : AVI
Format/Info : Audio Video Interleave
File size : 1.19 GiB
Duration : 1h 29mn
Overall bit rate : 1 901 Kbps
Movie name : STUBBRON FATE.Title1.DVDRip
Writing application : Lavf52.17.0
Original source form/Name : STUBBRON FATE

Video
ID : 0
Format : AVC
Format/Info : Advanced Video Codec
Format profile : [email protected]
Format settings, CABAC : No
Format settings, ReFrames : 1 frame
Codec ID : H264
Duration : 1h 29mn
Bit rate : 1 398 Kbps
Width : 720 pixels
Height : 432 pixels
Display aspect ratio : 5:3
Frame rate : 29.970 fps
Color space : YUV
Chroma subsampling : 4:2:0
Bit depth : 8 bits
Scan type : Progressive
Bits/(Pixel*Frame) : 0.150
Stream size : 927 MiB (76%)
Writing library : x264 core 60
Encoding settings : cabac=0 / ref=1 / deblock=0:0:0 / analyse=0x1:0 / me=dia / subme=7 / brdo=0 / mixed_ref=0 / me_range=4 / chroma_me=1 / trellis=0 / 8x8dct=0 / cqm=0 / deadzone=21,11 / chroma_qp_offset=0 / threads=2 / nr=0 / decimate=1 / mbaff=0 / bframes=0 / keyint=250 / keyint_min=25 / scenecut=0(pre) / rc=abr / bitrate=1398 / ratetol=5.9 / rceq='tex^qComp' / qcomp=0.50 / qpmin=10 / qpmax=31 / qpstep=3 / ip_ratio=1.25 / aq=0

Audio
ID : 1
Format : AC-3
Format/Info : Audio Coding 3
Mode extension : CM (complete main)
Format settings, Endianness : Big
Codec ID : 2000
Duration : 1h 29mn
Bit rate mode : Constant
Bit rate : 448 Kbps
Channel(s) : 2 channels
Channel positions : Front: L R
Sampling rate : 48.0 KHz
Compression mode : Lossy
Stream size : 288 MiB (24%)
Alignment : Aligned on interleaves
Interleave, duration : 32 ms (0.96 video frame)
Interleave, preload duration : 32 ms


mariatzoys2.gif
GlBZXmL.jpg

 

RmY8Z.png

Hidden Content
You'll be able to see the hidden content once you reply to this topic.


mlAW4h6.png

Hidden Content
You'll be able to see the hidden content once you reply to this topic.

 

MCFyYyM.png

Hidden Content
You'll be able to see the hidden content once you reply to this topic.

Share this post


Link to post
Share on other sites
panosiza

thanksssssss

Share this post


Link to post
Share on other sites

Create an account or sign in to comment

You need to be a member in order to leave a comment

Create an account

Sign up for a new account in our community. It's easy!

Register a new account

Sign in

Already have an account? Sign in here.

Sign In Now

×