Jump to content
Sign in to follow this  
POPIKOSTAS

LEYLA ILE MECNUN (2011–2014) HDTv - ΕΝΣΩΜΑΤΩΜΕΝΟΙ ΥΠΟΤΙΤΛΟΙ ΩΣ S03E08

Recommended Posts

POPIKOSTAS

vKKbQOJh.jpg

LEYLA ILE MECNUN (2011–2014) HDTv - ΕΝΣΩΜΑΤΩΜΕΝΟΙ ΥΠΟΤΙΤΛΟΙ

t8s5an0h.jpg

Series Directed by
Onur Unlu     ...     (58 episodes, 2011-2013)
Eyup Boz     ...     (46 episodes, 2011-2012)
Murat Onbul     ...     (31 episodes, 2011-2014)
Funda Alp     ...     (20 episodes, 2011)
Celil Murat Sari     ...     (20 episodes, 2011)
Orkun Unlu     ...     (20 episodes, 2011)
YΓΌksel Aksu     ...     (3 episodes, 2011)
Series Writing Credits  
Burak Aksak     ...     (104 episodes, 2011-2014)
Hamza Asgin     ...     (48 episodes, 2011-2012)
Derem Ciray     ...     (48 episodes, 2011-2012)
Sertac Baycan     ...     (41 episodes, 2011-2012)
Onur Unlu     ...     (unknown episodes)
Actor: Melis Birkan(Leyla) Asuman Dabak(Pakize) Selen Seyven(Aysel) Acelya Devrim Yilhan(Eylul) Aysen Gruda(Suna Turna) Osman Sonant(Yavuz) Cengiz Bozkurt(Erdal Bakkal) Serkan Keskin(Ismail) Onder AcΔ±kbas(Terapist Bilal) Ege Tanman(Kaan)
Ήχος:Τούρκικα

ajmMJaJh.jpg

Η σειρά Λεϊλά και Μετζνούν (τουρκ. Leyla ile Mecnun), είναι μια σουρεαλιστική κωμωδία, τουρκικής παραγωγής, που προβλήθηκε για τρία χρόνια και ολοκληρώθηκε χωρίς τελευταίο επεισόδιο. Η βασική ιδέα της σειράς ήταν ένα absurd comedy, βασισμένο στο Περσικό παραμύθι της Λεϊλά και του Μεζνούν, και ύστερα κατέληξε σε μία ρομαντική κωμωδία καταστάσεων.

Δύο μωρά που γεννήθηκαν την ίδια μέρα, στο ίδιο μαιευτήριο, τοποθετούνται στο ίδιο κρεβάτι, λόγω έλλειψης κρεβατιών. Οι οικογένειές τους θεωρώντας πως είναι γραφτό τους να είναι μαζί, τους έδωσαν τα ονόματα "Λεϊλά και Μετζνούν", όπως οι ήρωες του ομώνυμου παραμυθιού. Έπειτα περνούν 25 χρόνια. Ένα πρωί, ο Μετζνούν πληροφορείται από τους γονείς τους για το πως έχουν τα πράγματα και το ίδιο βράδυ πηγαίνουν να ζητήσουν τη Λεϊλά. Παρότι στην αρχή αντιδρούσε, ο Μετζνούν ερωτεύεται τη Λεϊλά με τη πρώτη ματιά. Καθώς δεν ξέρει τι να κάνει για να την πλησιάσει, βλέπει στον ύπνο του τον παππού Μακρυμούση, μια φιγούρα της Τουρκικής μυθολογίας. Ο τελευταίος, βγαίνει από το όνειρο του Μετζνούν στην πραγματικότητα για να τον βοηθήσει.

Η συνέχεια επί της μικρής μας οθόνης...

[video=youtube;PN0N-XTQmDs]https://www.youtube.com/watch?v=PN0N-XTQmDs[/video]

https://www.imdb.com/title/tt1831164/?ref_=ttfc_fc_tt

PhTkaYrh.jpg

ΤΕΧΝΙΚΑ ΧΑΡΑΚΤΗΡΙΣΤΙΚΑ


General
Complete name               : ELATOMATZOYNI.SO1E01.mkv
Format                      : Matroska
Format version              : Version 4
File size                   : 2.18 GiB
Duration                    : 1 h 10 min
Overall bit rate            : 4 450 kb/s
Writing application         : Lavf57.71.100
Writing library             : Lavf57.71.100
ErrorDetectionType          : Per level 1

Video
ID                          : 1
Format                      : AVC
Format/Info                 : Advanced Video Codec
Format profile              : [email protected]
Format settings             : CABAC / 4 Ref Frames
Format settings, CABAC      : Yes
Format settings, Reference  : 4 frames
Codec ID                    : V_MPEG4/ISO/AVC
Duration                    : 1 h 10 min
Bit rate                    : 4 233 kb/s
Width                       : 1 280 pixels
Height                      : 720 pixels
Display aspect ratio        : 16:9
Frame rate mode             : Constant
Frame rate                  : 25.000 FPS
Color space                 : YUV
Chroma subsampling          : 4:2:0
Bit depth                   : 8 bits
Scan type                   : Progressive
Bits/(Pixel*Frame)          : 0.184
Stream size                 : 2.08 GiB (95%)
Writing library             : x264 core 146 r2555 0c21480
Encoding settings           : cabac=1 / ref=3 / deblock=1:0:0 / analyse=0x3:0x133 / me=hex / subme=7 / psy=1 / psy_rd=1.00:0.00 / mixed_ref=1 / me_range=16 / chroma_me=1 / trellis=1 / 8x8dct=1 / cqm=0 / deadzone=21,11 / fast_pskip=1 / chroma_qp_offset=-2 / threads=18 / lookahead_threads=3 / sliced_threads=0 / nr=0 / decimate=1 / interlaced=0 / bluray_compat=0 / constrained_intra=0 / bframes=3 / b_pyramid=2 / b_adapt=1 / b_bias=0 / direct=1 / weightb=1 / open_gop=0 / weightp=2 / keyint=250 / keyint_min=25 / scenecut=40 / intra_refresh=0 / rc_lookahead=40 / rc=crf / mbtree=1 / crf=10.0 / qcomp=0.60 / qpmin=10 / qpmax=51 / qpstep=4 / ip_ratio=1.40 / aq=1:1.00
Default                     : Yes
Forced                      : No

Audio
ID                          : 2
Format                      : MPEG Audio
Format version              : Version 1
Format profile              : Layer 3
Format settings             : Joint stereo / MS Stereo
Codec ID                    : A_MPEG/L3
Codec ID/Hint               : MP3
Duration                    : 1 h 10 min
Bit rate mode               : Constant
Bit rate                    : 128 kb/s
Channel(s)                  : 2 channels
Sampling rate               : 48.0 kHz
Compression mode            : Lossy
Stream size                 : 64.3 MiB (3%)
Writing library             : LAME3.99.5
Language                    : unknown
Default                     : Yes
Forced                      : No


qO4Dexcl.png

Hidden Content
You'll be able to see the hidden content once you reply to this topic.

Share this post


Link to post
Share on other sites
POPIKOSTAS

Προστέθηκαν 3-4.

Share this post


Link to post
Share on other sites
POPIKOSTAS

Προστέθηκαν 5-6.

Share this post


Link to post
Share on other sites
fotini goumas
Στις ‎3‎/‎10‎/‎2019 στις 12:51 ΜΜ, POPIKOSTAS είπε

 

vKKbQOJh.jpg

LEYLA ILE MECNUN (2011–2014) HDTv - ΕΝΣΩΜΑΤΩΜΕΝΟΙ ΥΠΟΤΙΤΛΟΙ

t8s5an0h.jpg

Series Directed by
Onur Unlu     ...     (58 episodes, 2011-2013)
Eyup Boz     ...     (46 episodes, 2011-2012)
Murat Onbul     ...     (31 episodes, 2011-2014)
Funda Alp     ...     (20 episodes, 2011)
Celil Murat Sari     ...     (20 episodes, 2011)
Orkun Unlu     ...     (20 episodes, 2011)
YΓΌksel Aksu     ...     (3 episodes, 2011)
Series Writing Credits  
Burak Aksak     ...     (104 episodes, 2011-2014)
Hamza Asgin     ...     (48 episodes, 2011-2012)
Derem Ciray     ...     (48 episodes, 2011-2012)
Sertac Baycan     ...     (41 episodes, 2011-2012)
Onur Unlu     ...     (unknown episodes)
Actor: Melis Birkan(Leyla) Asuman Dabak(Pakize) Selen Seyven(Aysel) Acelya Devrim Yilhan(Eylul) Aysen Gruda(Suna Turna) Osman Sonant(Yavuz) Cengiz Bozkurt(Erdal Bakkal) Serkan Keskin(Ismail) Onder AcΔ±kbas(Terapist Bilal) Ege Tanman(Kaan)
Ήχος:Τούρκικα

ajmMJaJh.jpg

Η σειρά Λεϊλά και Μετζνούν (τουρκ. Leyla ile Mecnun), είναι μια σουρεαλιστική κωμωδία, τουρκικής παραγωγής, που προβλήθηκε για τρία χρόνια και ολοκληρώθηκε χωρίς τελευταίο επεισόδιο. Η βασική ιδέα της σειράς ήταν ένα absurd comedy, βασισμένο στο Περσικό παραμύθι της Λεϊλά και του Μεζνούν, και ύστερα κατέληξε σε μία ρομαντική κωμωδία καταστάσεων.

Δύο μωρά που γεννήθηκαν την ίδια μέρα, στο ίδιο μαιευτήριο, τοποθετούνται στο ίδιο κρεβάτι, λόγω έλλειψης κρεβατιών. Οι οικογένειές τους θεωρώντας πως είναι γραφτό τους να είναι μαζί, τους έδωσαν τα ονόματα "Λεϊλά και Μετζνούν", όπως οι ήρωες του ομώνυμου παραμυθιού. Έπειτα περνούν 25 χρόνια. Ένα πρωί, ο Μετζνούν πληροφορείται από τους γονείς τους για το πως έχουν τα πράγματα και το ίδιο βράδυ πηγαίνουν να ζητήσουν τη Λεϊλά. Παρότι στην αρχή αντιδρούσε, ο Μετζνούν ερωτεύεται τη Λεϊλά με τη πρώτη ματιά. Καθώς δεν ξέρει τι να κάνει για να την πλησιάσει, βλέπει στον ύπνο του τον παππού Μακρυμούση, μια φιγούρα της Τουρκικής μυθολογίας. Ο τελευταίος, βγαίνει από το όνειρο του Μετζνούν στην πραγματικότητα για να τον βοηθήσει.

Η συνέχεια επί της μικρής μας οθόνης...

[video=youtube;PN0N-XTQmDs]https://www.youtube.com/watch?v=PN0N-XTQmDs[/video]

 

https://www.imdb.com/title/tt1831164/?ref_=ttfc_fc_tt

 

PhTkaYrh.jpg

ΤΕΧΝΙΚΑ ΧΑΡΑΚΤΗΡΙΣΤΙΚΑ


General
Complete name               : ELATOMATZOYNI.SO1E01.mkv
Format                      : Matroska
Format version              : Version 4
File size                   : 2.18 GiB
Duration                    : 1 h 10 min
Overall bit rate            : 4 450 kb/s
Writing application         : Lavf57.71.100
Writing library             : Lavf57.71.100
ErrorDetectionType          : Per level 1

  Εμφάνιση κρυμμένων περιεχομένων

Video
ID                          : 1
Format                      : AVC
Format/Info                 : Advanced Video Codec
Format profile              : [email protected]
Format settings             : CABAC / 4 Ref Frames
Format settings, CABAC      : Yes
Format settings, Reference  : 4 frames
Codec ID                    : V_MPEG4/ISO/AVC
Duration                    : 1 h 10 min
Bit rate                    : 4 233 kb/s
Width                       : 1 280 pixels
Height                      : 720 pixels
Display aspect ratio        : 16:9
Frame rate mode             : Constant
Frame rate                  : 25.000 FPS
Color space                 : YUV
Chroma subsampling          : 4:2:0
Bit depth                   : 8 bits
Scan type                   : Progressive
Bits/(Pixel*Frame)          : 0.184
Stream size                 : 2.08 GiB (95%)
Writing library             : x264 core 146 r2555 0c21480
Encoding settings           : cabac=1 / ref=3 / deblock=1:0:0 / analyse=0x3:0x133 / me=hex / subme=7 / psy=1 / psy_rd=1.00:0.00 / mixed_ref=1 / me_range=16 / chroma_me=1 / trellis=1 / 8x8dct=1 / cqm=0 / deadzone=21,11 / fast_pskip=1 / chroma_qp_offset=-2 / threads=18 / lookahead_threads=3 / sliced_threads=0 / nr=0 / decimate=1 / interlaced=0 / bluray_compat=0 / constrained_intra=0 / bframes=3 / b_pyramid=2 / b_adapt=1 / b_bias=0 / direct=1 / weightb=1 / open_gop=0 / weightp=2 / keyint=250 / keyint_min=25 / scenecut=40 / intra_refresh=0 / rc_lookahead=40 / rc=crf / mbtree=1 / crf=10.0 / qcomp=0.60 / qpmin=10 / qpmax=51 / qpstep=4 / ip_ratio=1.40 / aq=1:1.00
Default                     : Yes
Forced                      : No

Audio
ID                          : 2
Format                      : MPEG Audio
Format version              : Version 1
Format profile              : Layer 3
Format settings             : Joint stereo / MS Stereo
Codec ID                    : A_MPEG/L3
Codec ID/Hint               : MP3
Duration                    : 1 h 10 min
Bit rate mode               : Constant
Bit rate                    : 128 kb/s
Channel(s)                  : 2 channels
Sampling rate               : 48.0 kHz
Compression mode            : Lossy
Stream size                 : 64.3 MiB (3%)
Writing library             : LAME3.99.5
Language                    : unknown
Default                     : Yes
Forced                      : No

 


qO4Dexcl.png

 

Hidden Content
You'll be able to see the hidden content once you reply to this topic.

 

 

Thank you

Share this post


Link to post
Share on other sites
POPIKOSTAS

Προστέθηκαν 7-10.

Share this post


Link to post
Share on other sites
POPIKOSTAS

Προστέθηκαν 11-13.

Share this post


Link to post
Share on other sites

Create an account or sign in to comment

You need to be a member in order to leave a comment

Create an account

Sign up for a new account in our community. It's easy!

Register a new account

Sign in

Already have an account? Sign in here.

Sign In Now
Sign in to follow this  

×