Jump to content
Sign in to follow this  
axhsa

[δράσης/φαντασίας] SPIDER-MAN: FAR FROM HOME (2019) UHD BluRay 2160p TrueHD Atmos 7.1 HEVC REMUX-FraMeSToR ΞΕΧΩΡΙΣΤΟΙ ΥΠΟΤΙΤΛΟΙ

Recommended Posts

axhsa

 

dW8FMhi.png


Ο Πίτερ Πάρκερ o φιλικός υπερήρωας και παιδί-της-διπλανής-πόρτας αποφασίζει να ακολουθήσει τους φίλους του Ned, MJ και την υπόλοιπη «τάξη» σε διακοπές στην Ευρώπη. Αν και τα σχέδια του Πίτερ είναι να αφήσει για λίγο πίσω του τις υπερηρωικές του ενασχολήσεις, ξαφνικά θα χαλάσουν όταν θα χρειαστεί να βοηθήσει τον Νικ Φιούρι και μαζί να ξεσκεπάσουν το μυστήριο επιθέσεων περίεργων πλασμάτων, που προκαλούν το χάος στην ήσυχη ήπειρο.


usDrZmS.png

https://www.imdb.com/title/tt6320628/


Είδος Ταινίας: Action, Adventure, Sci-Fi
Πρεμιέρα: 3 July 2019 (Greece)
Σκηνοθέτης: Jon Watts
Σενάριο: Chris McKenna, Erik Sommers
Ηθοποιοί: Tom Holland, Samuel L. Jackson, Jake Gyllenhaal
Ελληνικός Τίτλος: Spider-Man: Μακριά από τον τόπο του
Μετάφραση: Αλέξανδρος Γκουλέλης
Διάρκεια: 129'

 

3sZwobQ.png

 

General
Unique ID                      : 247582501556495428490111657446034341417 (0xBA42A7C4B740D0F844EEBAE70F4F7E29)
Complete name                  : I:\Spider-Man.Far.from.Home.2019.UHD.BluRay.2160p.TrueHD.Atmos.7.1.HEVC.REMUX-FraMeSToR.mkv
Format                         : Matroska
Format version                 : Version 4 / Version 2
File size                      : 52.7 GiB
Duration                       : 2h 9mn
Overall bit rate mode          : Variable
Overall bit rate               : 58.3 Mbps
Movie name                     : Spider-Man: Far from Home 4K
Encoded date                   : UTC 2019-09-20 09:27:48
Writing application            : mkvmerge v37.0.0 ('Leave It') 64-bit
Writing library                : libebml v1.3.9 + libmatroska v1.5.2
DURATION                       : 02:08:34.206000000
NUMBER_OF_FRAMES               : 3436
NUMBER_OF_BYTES                : 35390404
_STATISTICS_WRITING_APP        : mkvmerge v37.0.0 ('Leave It') 64-bit
_STATISTICS_WRITING_DATE_UTC   : 2019-09-20 09:27:48
_STATISTICS_TAGS               : BPS DURATION NUMBER_OF_FRAMES NUMBER_OF_BYTES

Video
ID                             : 1
Format                         : HEVC
Format/Info                    : High Efficiency Video Coding
Format profile                 : Main [email protected]@High
Codec ID                       : V_MPEGH/ISO/HEVC
Duration                       : 2h 9mn
Width                          : 3 840 pixels
Height                         : 2 160 pixels
Display aspect ratio           : 16:9
Frame rate mode                : Constant
Frame rate                     : 23.976 fps
Color space                    : YUV
Chroma subsampling             : 4:2:0
Bit depth                      : 10 bits
Default                        : Yes
Forced                         : No
Color range                    : Limited
Color primaries                : BT.2020
Matrix coefficients            : BT.2020 non-constant

Audio #1
ID                             : 2
Format                         : TrueHD
Codec ID                       : A_TRUEHD
Duration                       : 2h 9mn
Bit rate mode                  : Variable
Maximum bit rate               : 5 397 Kbps
Channel(s)                     : 8 channels
Channel positions              : Front: L C R, Side: L R, Back: L R, LFE
Sampling rate                  : 48.0 KHz
Compression mode               : Lossless
Title                          : TrueHD Atmos 7.1
Language                       : English
Default                        : Yes
Forced                         : No

Audio #2
ID                             : 3
Format                         : AC-3
Format/Info                    : Audio Coding 3
Mode extension                 : CM (complete main)
Format settings, Endianness    : Big
Codec ID                       : A_AC3
Duration                       : 2h 9mn
Bit rate mode                  : Constant
Bit rate                       : 640 Kbps
Channel(s)                     : 6 channels
Channel positions              : Front: L C R, Side: L R, LFE
Sampling rate                  : 48.0 KHz
Bit depth                      : 16 bits
Compression mode               : Lossy
Stream size                    : 592 MiB (1%)
Title                          : AC3 5.1
Language                       : English
Default                        : No
Forced                         : No

Text #11
ID                             : 14
Format                         : PGS
Codec ID                       : S_HDMV/PGS
Codec ID/Info                  : Picture based subtitle format used on BDs/HD-DVDs
Title                          : Greek
Language                       : Greek
Default                        : No
Forced                         : No

 

9PdOlaK.jpg

 

EASYBYTEZ | FILEFACTORY| LINK FOR FREE USERS


Hidden Content
You'll be able to see the hidden content once you reply to this topic.

Share this post


Link to post
Share on other sites
agras
On 9/21/2019 at 12:23 PM, axhsa said:

 

 

dW8FMhi.png


Ο Πίτερ Πάρκερ o φιλικός υπερήρωας και παιδί-της-διπλανής-πόρτας αποφασίζει να ακολουθήσει τους φίλους του Ned, MJ και την υπόλοιπη «τάξη» σε διακοπές στην Ευρώπη. Αν και τα σχέδια του Πίτερ είναι να αφήσει για λίγο πίσω του τις υπερηρωικές του ενασχολήσεις, ξαφνικά θα χαλάσουν όταν θα χρειαστεί να βοηθήσει τον Νικ Φιούρι και μαζί να ξεσκεπάσουν το μυστήριο επιθέσεων περίεργων πλασμάτων, που προκαλούν το χάος στην ήσυχη ήπειρο.


usDrZmS.png

On 9/21/2019 at 12:23 PM, axhsa said:
opic.

 

 

fgfgfff


Είδος Ταινίας: Action, Adventure, Sci-Fi
Πρεμιέρα: 3 July 2019 (Greece)
Σκηνοθέτης: Jon Watts
Σενάριο: Chris McKenna, Erik Sommers
Ηθοποιοί: Tom Holland, Samuel L. Jackson, Jake Gyllenhaal
Ελληνικός Τίτλος: Spider-Man: Μακριά από τον τόπο του
Μετάφραση: Αλέξανδρος Γκουλέλης
Διάρκεια: 129'

 

3sZwobQ.png

 

 

  Reveal hidden contents

General
Unique ID                      : 247582501556495428490111657446034341417 (0xBA42A7C4B740D0F844EEBAE70F4F7E29)
Complete name                  : I:\Spider-Man.Far.from.Home.2019.UHD.BluRay.2160p.TrueHD.Atmos.7.1.HEVC.REMUX-FraMeSToR.mkv
Format                         : Matroska
Format version                 : Version 4 / Version 2
File size                      : 52.7 GiB
Duration                       : 2h 9mn
Overall bit rate mode          : Variable
Overall bit rate               : 58.3 Mbps
Movie name                     : Spider-Man: Far from Home 4K
Encoded date                   : UTC 2019-09-20 09:27:48
Writing application            : mkvmerge v37.0.0 ('Leave It') 64-bit
Writing library                : libebml v1.3.9 + libmatroska v1.5.2
DURATION                       : 02:08:34.206000000
NUMBER_OF_FRAMES               : 3436
NUMBER_OF_BYTES                : 35390404
_STATISTICS_WRITING_APP        : mkvmerge v37.0.0 ('Leave It') 64-bit
_STATISTICS_WRITING_DATE_UTC   : 2019-09-20 09:27:48
_STATISTICS_TAGS               : BPS DURATION NUMBER_OF_FRAMES NUMBER_OF_BYTES

Video
ID                             : 1
Format                         : HEVC
Format/Info                    : High Efficiency Video Coding
Format profile                 : Main [email protected]@High
Codec ID                       : V_MPEGH/ISO/HEVC
Duration                       : 2h 9mn
Width                          : 3 840 pixels
Height                         : 2 160 pixels
Display aspect ratio           : 16:9
Frame rate mode                : Constant
Frame rate                     : 23.976 fps
Color space                    : YUV
Chroma subsampling             : 4:2:0
Bit depth                      : 10 bits
Default                        : Yes
Forced                         : No
Color range                    : Limited
Color primaries                : BT.2020
Matrix coefficients            : BT.2020 non-constant

Audio #1
ID                             : 2
Format                         : TrueHD
Codec ID                       : A_TRUEHD
Duration                       : 2h 9mn
Bit rate mode                  : Variable
Maximum bit rate               : 5 397 Kbps
Channel(s)                     : 8 channels
Channel positions              : Front: L C R, Side: L R, Back: L R, LFE
Sampling rate                  : 48.0 KHz
Compression mode               : Lossless
Title                          : TrueHD Atmos 7.1
Language                       : English
Default                        : Yes
Forced                         : No

Audio #2
ID                             : 3
Format                         : AC-3
Format/Info                    : Audio Coding 3
Mode extension                 : CM (complete main)
Format settings, Endianness    : Big
Codec ID                       : A_AC3
Duration                       : 2h 9mn
Bit rate mode                  : Constant
Bit rate                       : 640 Kbps
Channel(s)                     : 6 channels
Channel positions              : Front: L C R, Side: L R, LFE
Sampling rate                  : 48.0 KHz
Bit depth                      : 16 bits
Compression mode               : Lossy
Stream size                    : 592 MiB (1%)
Title                          : AC3 5.1
Language                       : English
Default                        : No
Forced                         : No

Text #11
ID                             : 14
Format                         : PGS
Codec ID                       : S_HDMV/PGS
Codec ID/Info                  : Picture based subtitle format used on BDs/HD-DVDs
Title                          : Greek
Language                       : Greek
Default                        : No
Forced                         : No

 

 

9PdOlaK.jpg

 

EASYBYTEZ | FILEFACTORY| LINK FOR FREE USERS

 

Hidden Content
You'll be able to see the hidden content once you reply to this topic.

 

 

 

Share this post


Link to post
Share on other sites

Create an account or sign in to comment

You need to be a member in order to leave a comment

Create an account

Sign up for a new account in our community. It's easy!

Register a new account

Sign in

Already have an account? Sign in here.

Sign In Now
Sign in to follow this  

×